<?xml version="1.0" encoding="UTF-8" standalone="no"?> <svg><metadata> Created by FontForge 20120731 at Thu Aug 22 02:49:00 2019 By www 2014 Sergiy S. Tkachenko / 4th february 2014 FirstSiteGuide.com http://creativecommons.org/licenses/by-nd/4.0/ </metadata><defs><font id="BloggerSans"><glyph glyph-name="ff" unicode="ff" d="M343 537q0 48 13.5 82.5t36.5 57.5t55.5 35t69.5 13q6 0 21 -0.5t30.5 -4.5t27.5 -13.5t12 -26.5t-11.5 -27t-26.5 -10q-13 0 -26.5 3.5t-34.5 3.5q-45 0 -67 -31t-22 -74v-62h104q15 0 25.5 -10.5t10.5 -26.5t-11 -26.5t-25 -10.5h-104v-376q0 -16 -9.5 -27t-29.5 -11 t-29.5 11t-9.5 27v504zM74 537q0 48 13.5 82.5t36.5 57.5t55.5 35t69.5 13q6 0 21 -0.5t30.5 -4.5t27.5 -13.5t12 -26.5t-11.5 -27t-26.5 -10q-13 0 -26.5 3.5t-34.5 3.5q-45 0 -67 -31t-22 -74v-62h104q15 0 25.5 -10.5t10.5 -26.5t-11 -26.5t-25 -10.5h-104v-376 q0 -16 -9.5 -27t-29.5 -11t-29.5 11t-9.5 27v504z"></glyph><glyph glyph-name="fi" unicode="fi" d="M450 668q0 -20 -14 -34t-34 -14t-34 14t-14 34t14 34t34 14t34 -14t14 -34zM441 31q0 -17 -11 -28t-28 -11t-28 11t-11 28v441q0 16 11 27.5t28 11.5t28 -11.5t11 -27.5v-441zM74 537q0 48 12 82.5t32.5 57.5t49 35t61.5 13q6 0 21 -0.5t30.5 -4.5t27.5 -13.5t12 -26.5 t-11.5 -27t-26.5 -10q-13 0 -26.5 3.5t-34.5 3.5q-34 0 -51.5 -31t-17.5 -74v-62h104q15 0 25.5 -10.5t10.5 -26.5t-10.5 -26.5t-25.5 -10.5h-104v-376q0 -16 -10 -27t-29 -11t-29 11t-10 27v504z"></glyph><glyph glyph-name="fl" unicode="fl" d="M74 537q0 48 12 82.5t32.5 57.5t49 35t61.5 13q6 0 21 -0.5t30.5 -4.5t27.5 -13.5t12 -26.5t-11.5 -27t-26.5 -10q-13 0 -26.5 3.5t-34.5 3.5q-34 0 -51.5 -31t-17.5 -74v-62h104q15 0 25.5 -10.5t10.5 -26.5t-10.5 -26.5t-25.5 -10.5h-104v-376q0 -16 -10 -27t-29 -11 t-29 11t-10 27v504zM363 94v592q0 16 11 27.5t28 11.5t28 -11t11 -28v-592q0 -17 3 -27.5t11 -19.5q2 -3 4.5 -8t2.5 -11q0 -15 -10.5 -25.5t-25.5 -10.5q-9 0 -20 3.5t-20.5 14t-16 30.5t-6.5 54z"></glyph><glyph glyph-name="ffi" unicode="ffi" d="M688 668q0 -20 -14 -34t-34 -14t-34 14t-14 34t14 34t34 14t34 -14t14 -34zM679 31q0 -17 -11 -28t-28 -11t-28 11t-11 28v441q0 16 11 27.5t28 11.5t28 -11.5t11 -27.5v-441zM332 537q0 48 12 82.5t32.5 57.5t49 35t61.5 13q5 0 16.5 -0.5t23.5 -4.5t21.5 -13.5 t9.5 -26.5t-11.5 -27t-26.5 -10q-8 0 -17.5 3.5t-23.5 3.5q-34 0 -51.5 -31t-17.5 -74v-62h104q15 0 25.5 -10.5t10.5 -26.5t-10.5 -26.5t-25.5 -10.5h-104v-376q0 -16 -10 -27t-29 -11t-29 11t-10 27v504zM74 537q0 48 13.5 82.5t36.5 57.5t55.5 35t69.5 13q6 0 21 -0.5 t30.5 -4.5t27.5 -13.5t12 -26.5t-11.5 -27t-26.5 -10q-13 0 -26.5 3.5t-34.5 3.5q-45 0 -67 -31t-22 -74v-62h104q14 0 25 -10.5t11 -26.5t-11 -26.5t-25 -10.5h-104v-376q0 -16 -9.5 -27t-29.5 -11t-29.5 11t-9.5 27v504z"></glyph><glyph glyph-name="ffl" unicode="ffl" d="M342 537q0 48 12 82.5t32.5 57.5t49 35t61.5 13q6 0 21 -0.5t30.5 -4.5t27.5 -13.5t12 -26.5t-11.5 -27t-26.5 -10q-13 0 -26.5 3.5t-34.5 3.5q-34 0 -51.5 -31t-17.5 -74v-62h104q15 0 25.5 -10.5t10.5 -26.5t-10.5 -26.5t-25.5 -10.5h-104v-376q0 -16 -10 -27t-29 -11 t-29 11t-10 27v504zM631 94v592q0 16 11 27.5t28 11.5t28 -11t11 -28v-592q0 -17 2.5 -27.5t11.5 -19.5q2 -3 4.5 -8t2.5 -11q0 -15 -10.5 -25.5t-25.5 -10.5q-9 0 -20 3.5t-20.5 14t-16 30.5t-6.5 54zM74 537q0 48 13.5 82.5t36.5 57.5t55.5 35t69.5 13q6 0 21 -0.5 t30.5 -4.5t27.5 -13.5t12 -26.5t-11.5 -27t-26.5 -10q-13 0 -26.5 3.5t-34.5 3.5q-45 0 -67 -31t-22 -74v-62h104q15 0 25.5 -10.5t10.5 -26.5t-11 -26.5t-25 -10.5h-104v-376q0 -16 -9.5 -27t-29.5 -11t-29.5 11t-9.5 27v504z"></glyph><glyph glyph-name="uni0457_uni0457" unicode="її" d="M161 31q0 -17 -11 -28t-28 -11t-28 11t-11 28v441q0 16 11 27.5t28 11.5t28 -11.5t11 -27.5v-441zM81 619q0 -23 -15 -38.5t-38 -15.5q-22 0 -37 16t-15 38q0 21 15 36.5t37 15.5q23 0 38 -15t15 -37zM396 31q0 -17 -11 -28t-28 -11t-28 11t-11 28v441q0 16 11 27.5 t28 11.5t28 -11.5t11 -27.5v-441zM504 619q0 -23 -15.5 -38.5t-37.5 -15.5t-37.5 16t-15.5 38q0 21 15.5 36.5t37.5 15.5t37.5 -15t15.5 -37zM292 619q0 -23 -15 -38.5t-38 -15.5q-22 0 -37 16t-15 38q0 21 15.5 36.5t36.5 15.5q23 0 38 -15t15 -37z"></glyph><glyph glyph-name=".notdef"></glyph><glyph glyph-name=".null"></glyph><glyph glyph-name="nonmarkingreturn" unicode="&#13;"></glyph><glyph glyph-name="space" unicode=" "></glyph><glyph glyph-name="exclam" unicode="!" d="M83 202l-10 473q0 16 11.5 28t28.5 12t28.5 -12t11.5 -28l-10 -473q0 -13 -9 -22.5t-21 -9.5q-13 0 -21.5 9.5t-8.5 22.5zM168 45q0 -23 -15.5 -39t-37.5 -16q-23 0 -38.5 16t-15.5 39q0 22 15.5 37.5t38.5 15.5q22 0 37.5 -15.5t15.5 -37.5z"></glyph><glyph glyph-name="quotedbl" unicode="&quot;" d="M56 485l29 243q3 14 16.5 23t30.5 7q17 -3 27.5 -15.5t6.5 -26.5l-56 -241q-2 -11 -11.5 -18.5t-20.5 -5.5t-17.5 12.5t-4.5 21.5zM186 485l29 243q3 14 16.5 23t30.5 7q17 -3 27.5 -15.5t6.5 -26.5l-56 -241q-2 -11 -11.5 -18.5t-20.5 -5.5t-17.5 12.5t-4.5 21.5z"></glyph><glyph glyph-name="numbersign" unicode="#" d="M111 483h60l45 201q8 28 37 28q14 -2 24 -12.5t9 -24.5q0 -5 -1 -8l-41 -184h107l45 201q8 28 37 28q14 -2 24 -12.5t9 -24.5q0 -5 -1 -8l-41 -184h35q15 0 27 -11t12 -28t-11 -28t-28 -11h-52l-23 -102h45q15 0 27 -11t12 -28t-11 -28t-28 -11h-62l-45 -203 q-8 -29 -37 -29q-14 2 -24 12.5t-10 25.5l2 9l41 185h-107l-45 -203q-8 -29 -37 -29q-14 2 -24 12.5t-10 25.5l2 9l41 185h-33q-17 0 -28 11t-11 28t12 28t27 11h50l23 102h-43q-17 0 -28 11t-11 28t12 28t27 11zM227 405l-23 -102h107l23 102h-107z"></glyph><glyph glyph-name="dollar" unicode="$" d="M225 -28v48q-25 1 -56 5t-57.5 13t-44.5 23t-18 33q0 15 10.5 27t26.5 12q10 0 22 -5t28.5 -11.5t38.5 -12t50 -6.5v228q-33 11 -64 24t-56 33t-40 49.5t-15 74.5q0 79 47 124.5t128 52.5v49q0 11 7.5 18.5t18.5 7.5t18.5 -7.5t7.5 -18.5v-49q22 -1 47.5 -5t47.5 -12 t36.5 -20t14.5 -30q0 -15 -10.5 -26.5t-29.5 -11.5q-11 0 -21 3.5t-22 8t-27 9t-36 6.5v-215q32 -11 63.5 -24t56.5 -33t40 -50t15 -74q0 -81 -49 -129t-126 -59v-50q0 -11 -7.5 -18.5t-18.5 -7.5t-18.5 7.5t-7.5 18.5zM368 202q0 22 -5.5 37.5t-13.5 26t-18.5 17.5 t-19.5 11q-8 4 -16.5 7.5t-17.5 6.5v-207q91 15 91 101zM191 423q8 -4 16.5 -7.5t17.5 -7.5v197q-38 -5 -65 -25.5t-27 -66.5q0 -21 6 -36.5t14.5 -26t18.5 -17t19 -10.5z"></glyph><glyph glyph-name="percent" unicode="%" d="M196 396q-34 0 -60.5 12.5t-44.5 34t-27 50.5t-9 63t9 63t27 50.5t44.5 34t60.5 12.5q35 0 61 -12.5t44 -34t27 -50.5t9 -63t-9 -63t-27 -50.5t-44 -34t-61 -12.5zM196 458q38 0 55.5 26t17.5 74q0 45 -17.5 70.5t-55.5 25.5t-55.5 -25.5t-17.5 -70.5q0 -48 17.5 -74 t55.5 -26zM507 -10q-34 0 -60.5 12.5t-44.5 34t-27 50.5t-9 63t9 63t27 50.5t44.5 34t60.5 12.5t60.5 -12.5t44.5 -34t27 -50.5t9 -63t-9 -63t-27 -50.5t-44 -34t-61 -12.5zM507 52q38 0 55.5 26t17.5 74q0 45 -17.5 70.5t-55.5 25.5t-55.5 -25.5t-17.5 -70.5 q0 -48 17.5 -74t55.5 -26zM552 664l-337 -647q-7 -13 -18.5 -17.5t-24.5 -1.5q-14 5 -20.5 18.5t-2.5 27.5l4 8l337 646q7 12 18.5 16.5t24.5 0.5q13 -5 20 -17.5t2 -26.5q0 -4 -3 -7z"></glyph><glyph glyph-name="ampersand" unicode="&amp;" d="M595 30q0 -16 -10.5 -28t-27.5 -12q-12 0 -19.5 5.5t-15.5 15.5l-64 76q-37 -38 -86.5 -67.5t-117.5 -29.5q-46 0 -84 14.5t-65.5 40t-42.5 60.5t-15 75q0 41 13 73t34.5 57.5t48.5 46t54 36.5q-37 40 -59.5 80t-22.5 84q0 36 14 65t37.5 49.5t54.5 31t64 10.5 q34 0 63.5 -11t51.5 -29.5t34.5 -42t12.5 -47.5q0 -16 -12 -27t-26 -11t-23 8.5t-13 21.5q-7 25 -29 46t-56 21q-38 0 -66.5 -23t-28.5 -64q0 -16 7.5 -33t19 -34t25.5 -33.5t27 -32.5l185 -213q18 28 32.5 57.5t27.5 58.5q8 18 15.5 21.5t19.5 3.5q14 0 25.5 -11t11.5 -27 q0 -15 -7.5 -36t-19.5 -43.5t-26.5 -45t-27.5 -40.5l78 -93q9 -10 9 -24zM409 146l-166 190q-22 -12 -43 -26.5t-38 -32.5t-27.5 -40t-10.5 -49q0 -25 9 -48t25 -40t39 -27.5t51 -10.5q52 0 90.5 24t70.5 60z"></glyph><glyph glyph-name="quotesingle" unicode="'" d="M56 485l29 243q3 14 16.5 23t30.5 7q17 -3 27.5 -15.5t6.5 -26.5l-56 -241q-2 -11 -11.5 -18.5t-20.5 -5.5t-17.5 12.5t-4.5 21.5z"></glyph><glyph glyph-name="parenleft" unicode="(" d="M144 221q0 -103 22.5 -202.5t73.5 -189.5q4 -7 7 -13.5t3 -13.5q0 -16 -9 -29t-29 -13q-21 0 -33 19q-60 100 -87 214.5t-27 227.5t27 227.5t87 214.5q12 19 33 19q20 0 29 -13t9 -29q0 -7 -3 -13.5t-7 -13.5q-51 -90 -73.5 -189.5t-22.5 -202.5z"></glyph><glyph glyph-name="parenright" unicode=")" d="M131 221q0 103 -22.5 202.5t-73.5 189.5q-4 7 -7 13.5t-3 13.5q0 16 9 29t29 13q21 0 33 -19q60 -100 87 -214.5t27 -227.5t-27 -227.5t-87 -214.5q-12 -19 -33 -19q-20 0 -29 13t-9 29q0 7 3 13.5t7 13.5q51 90 73.5 189.5t22.5 202.5z"></glyph><glyph glyph-name="asterisk" unicode="*" d="M437 595q6 -17 -3 -28.5t-23 -16.5l-116 -32l75 -95q9 -11 9.5 -25.5t-15.5 -25.5q-15 -11 -28.5 -6.5t-21.5 15.5l-67 103q-17 -24 -33.5 -51.5t-33.5 -51.5q-8 -11 -21.5 -15t-28.5 6q-14 10 -14 25t8 26l76 95l-117 32q-14 5 -22.5 16.5t-3.5 28.5q6 18 19.5 22.5 t27.5 -0.5q29 -11 57 -22.5t57 -21.5l-6 122q-1 14 7.5 25.5t27.5 11.5t27.5 -11.5t7.5 -25.5l-6 -122q29 10 57 21.5t57 22.5q14 5 27.5 0.5t19.5 -22.5z"></glyph><glyph glyph-name="plus" unicode="+" d="M211 145v170h-160q-17 0 -28 11t-11 28t12 28t27 11h160v170q0 15 11 27t28 12t28 -11t11 -28v-170h160q15 0 27 -11t12 -28t-11 -28t-28 -11h-160v-170q0 -17 -11 -28t-28 -11t-28 12t-11 27z"></glyph><glyph glyph-name="comma" unicode="," d="M168 45q0 -25 -8 -54t-20 -53.5t-25 -40.5t-23 -16q-8 0 -13.5 3.5t-5.5 13.5q0 12 4 22t10 20.5t12.5 22t10.5 27.5q-21 2 -35 17.5t-14 37.5t15.5 37.5t38.5 15.5q22 0 37.5 -15.5t15.5 -37.5z"></glyph><glyph glyph-name="hyphen" unicode="-" d="M360 295q0 -15 -10.5 -25.5t-25.5 -10.5h-249q-16 0 -26.5 10.5t-10.5 25.5t10.5 26t26.5 11h249q15 0 25.5 -11t10.5 -26z"></glyph><glyph glyph-name="period" unicode="." d="M168 45q0 -23 -15.5 -39t-37.5 -16q-23 0 -38.5 16t-15.5 39q0 22 15.5 37.5t38.5 15.5q22 0 37.5 -15.5t15.5 -37.5z"></glyph><glyph glyph-name="slash" unicode="/" d="M303 707l-257 -725q-5 -14 -16.5 -20.5t-25.5 -4.5q-15 3 -23.5 15.5t-6.5 28.5q0 2 2 8l257 724q5 14 16.5 20t25.5 4q14 -3 23 -15.5t7 -27.5q0 -3 -2 -7z"></glyph><glyph glyph-name="zero" unicode="0" d="M250 652q-65 0 -93.5 -41.5t-28.5 -106.5v-306q0 -60 31 -97t91 -37t91 37t31 97v306q0 65 -28.5 106.5t-93.5 41.5zM250 725q53 0 90.5 -18t62.5 -49t36.5 -73t11.5 -89v-298q0 -43 -13 -81t-38.5 -66.5t-63 -44.5t-86.5 -16t-86.5 16t-63 44.5t-38.5 66.5t-13 81v298 q0 47 11.5 89t36.5 73t63 49t90 18z"></glyph><glyph glyph-name="one" unicode="1" d="M271 31v581l-123 -79q-11 -7 -22 -13.5t-22 -6.5q-13 0 -24 10t-11 24q0 23 18 35l197 126q11 7 24 7q18 0 30.5 -12.5t12.5 -30.5v-641q0 -16 -11.5 -28t-28.5 -12t-28.5 12t-11.5 28z"></glyph><glyph glyph-name="two" unicode="2" d="M454 38q0 -16 -11 -27t-28 -11h-329q-18 0 -29.5 12t-11.5 30q0 10 1 20.5t5 18.5q20 48 52 89.5t69 79t75 73.5t70 73q22 25 38.5 56.5t16.5 70.5q0 55 -31 92t-93 37q-29 0 -52 -5t-43 -14q-19 -8 -32.5 -18t-27.5 -10t-26 10t-12 27q0 21 26 38q39 25 79.5 35t88.5 10 t85 -15t63 -41t39.5 -60.5t13.5 -74.5q0 -63 -20 -106.5t-52 -78.5q-31 -34 -65 -66.5t-66 -65t-60 -67t-47 -74.5h275q17 0 28 -11t11 -27z"></glyph><glyph glyph-name="three" unicode="3" d="M416 632l-168 -217q43 -1 79.5 -14.5t63.5 -38t42 -60.5t15 -83q0 -39 -11.5 -79.5t-36 -73.5t-63 -54t-92.5 -21q-15 0 -47.5 2.5t-64.5 10.5t-56.5 22.5t-24.5 38.5q0 15 10.5 26.5t26.5 11.5q11 0 21 -6q22 -13 48 -23.5t65 -10.5q42 0 70 14t45 35.5t24 48.5t7 54 q0 69 -38.5 99t-97.5 30q-26 0 -43 -6q-5 -2 -7.5 -4t-9.5 -2q-10 0 -18 6t-12 15t-3.5 19.5t7.5 20.5l179 233h-222q-17 0 -28 11t-11 28t11 29t28 12h279q19 0 31 -12.5t12 -32.5q0 -16 -10 -29z"></glyph><glyph glyph-name="four" unicode="4" d="M404 149v-119q0 -17 -11 -28t-28 -11t-28 11t-11 28v119h-250q-18 0 -29.5 13t-11.5 30q0 2 2 10.5t6 16.5l192 481q5 11 14 17t20 6q14 0 26.5 -11.5t12.5 -28.5v-6.5t-2 -6.5l-179 -446h199v196q0 17 11 28t28 11q16 0 27.5 -11t11.5 -28v-196h43q16 0 26.5 -11 t10.5 -26q0 -16 -10.5 -27t-26.5 -11h-43z"></glyph><glyph glyph-name="five" unicode="5" d="M448 225q0 -42 -11.5 -84t-36 -75t-62.5 -54t-92 -21q-15 0 -47.5 2.5t-65 10.5t-57 22.5t-24.5 38.5q0 15 10.5 26.5t26.5 11.5q11 0 21 -6q20 -12 46.5 -23t66.5 -11q42 0 70 13.5t45 36t24 50.5t7 58q0 75 -36 111t-90 36q-22 0 -39.5 -5.5t-33.5 -14.5 q-17 -9 -28 -18.5t-26 -9.5q-17 0 -29 12t-11 31l10 299q1 21 15 32.5t31 11.5h241q17 0 31.5 -8.5t14.5 -29.5q0 -20 -14.5 -28.5t-31.5 -8.5h-216l-8 -216q22 13 46 18.5t50 5.5q45 0 82 -14.5t64 -42t42 -67.5t15 -90z"></glyph><glyph glyph-name="six" unicode="6" d="M123 390q29 26 65 36.5t70 10.5q42 0 78.5 -13.5t63.5 -41t43 -68t16 -94.5q0 -47 -13 -88.5t-38.5 -73t-64.5 -50t-92 -18.5q-61 0 -101.5 25.5t-64.5 71t-34 108t-10 137.5q0 186 54 284.5t166 98.5q13 0 38.5 -2t51 -7.5t45 -16.5t19.5 -29q0 -14 -10.5 -25.5 t-25.5 -11.5q-7 0 -22 5q-17 5 -38 10t-45 5q-46 0 -75 -20t-46 -54.5t-23.5 -80.5t-6.5 -98zM121 305v-24q0 -42 5.5 -80.5t20 -68t40.5 -47t68 -17.5q35 0 59 12.5t38.5 33.5t21 48t6.5 56q0 74 -34 108.5t-91 34.5q-42 0 -78 -16t-56 -40z"></glyph><glyph glyph-name="seven" unicode="7" d="M450 665q0 -5 -1 -11t-3 -11l-249 -627q-9 -25 -36 -25q-15 0 -26.5 9.5t-13.5 25.5q0 10 3 19l235 582h-271q-15 0 -26.5 11.5t-11.5 27.5q0 17 11 28.5t27 11.5h320q17 0 29.5 -12t12.5 -29z"></glyph><glyph glyph-name="eight" unicode="8" d="M471 195q0 -44 -16 -81.5t-45.5 -65t-70 -43t-89.5 -15.5q-48 0 -88.5 15t-70.5 41.5t-46.5 63.5t-16.5 81q0 67 35.5 110.5t87.5 71.5q-42 26 -70 65.5t-28 96.5q0 41 15.5 74.5t42.5 56.5t62.5 35.5t75.5 12.5q41 0 77 -13t62.5 -36.5t41.5 -56t15 -71.5 q0 -51 -25.5 -90t-71.5 -68q52 -28 87.5 -72t35.5 -112zM368 533q0 49 -34 79.5t-84 30.5q-51 0 -85 -30.5t-34 -79.5q0 -25 10 -46t26.5 -36.5t38.5 -25.5t46 -15q48 11 82 43t34 80zM392 196q0 31 -12 55t-32.5 41.5t-46.5 29t-54 16.5q-29 -6 -54.5 -18.5t-44.5 -30.5 t-30 -41.5t-11 -52.5q0 -28 11 -52.5t30 -42t45.5 -27.5t56.5 -10q31 0 57 10t45 28t29.5 42.5t10.5 52.5z"></glyph><glyph glyph-name="nine" unicode="9" d="M377 315q-29 -26 -65 -36.5t-70 -10.5q-41 0 -77.5 13.5t-64 40.5t-43.5 68t-16 97q0 46 12 87.5t37 72.5t63.5 49.5t91.5 18.5q62 0 103 -25t65.5 -71t35 -110.5t10.5 -143.5q0 -187 -53.5 -281t-166.5 -94q-13 0 -39 2t-51.5 7.5t-44.5 16.5t-19 29q0 14 10.5 25.5 t25.5 11.5q7 0 22 -5q17 -5 38 -10t45 -5q46 0 75 20t46 54.5t23.5 80.5t6.5 98zM379 400v24q0 45 -7 84t-23.5 67.5t-42.5 45t-64 16.5q-34 0 -57 -13t-37.5 -34t-21 -48t-6.5 -56q0 -73 34.5 -107.5t91.5 -34.5q42 0 77.5 16t55.5 40z"></glyph><glyph glyph-name="colon" unicode=":" d="M168 45q0 -23 -15.5 -39t-37.5 -16q-23 0 -38.5 16t-15.5 39q0 22 15.5 37.5t38.5 15.5q22 0 37.5 -15.5t15.5 -37.5zM168 345q0 -23 -15.5 -39t-37.5 -16q-23 0 -38.5 16t-15.5 39q0 22 15.5 37.5t38.5 15.5q22 0 37.5 -15.5t15.5 -37.5z"></glyph><glyph glyph-name="semicolon" unicode=";" d="M168 45q0 -25 -8 -54t-20 -53.5t-25 -40.5t-23 -16q-8 0 -13.5 3.5t-5.5 13.5q0 12 4 22t10 20.5t12.5 22t10.5 27.5q-21 2 -35 17.5t-14 37.5t15.5 37.5t38.5 15.5q22 0 37.5 -15.5t15.5 -37.5zM168 345q0 -23 -15.5 -39t-37.5 -16q-23 0 -38.5 16t-15.5 39 q0 22 15.5 37.5t38.5 15.5q22 0 37.5 -15.5t15.5 -37.5z"></glyph><glyph glyph-name="less" unicode="&lt;" d="M529 172q12 -6 20 -15.5t8 -20.5q0 -20 -16.5 -34t-35.5 -4l-396 205q-17 10 -29 19t-12 30q0 22 12 30.5t29 19.5l396 205q20 7 36 -5.5t16 -32.5q0 -11 -8 -21t-20 -16l-358 -180z"></glyph><glyph glyph-name="equal" unicode="=" d="M91 303h318q15 0 27 -11t12 -28t-11 -28t-28 -11h-318q-17 0 -28 11t-11 28t12 28t27 11zM91 483h318q15 0 27 -11t12 -28t-11 -28t-28 -11h-318q-17 0 -28 11t-11 28t12 28t27 11z"></glyph><glyph glyph-name="greater" unicode="&gt;" d="M454 352l-358 180q-12 6 -20 16t-8 21q0 20 16.5 34t35.5 4l396 -205q17 -11 29 -19.5t12 -30.5q0 -21 -12 -30t-29 -19l-396 -205q-19 -10 -35.5 4t-16.5 34q0 11 8 20.5t20 15.5z"></glyph><glyph glyph-name="question" unicode="?" d="M273 249q-4 -8 -5 -18.5t-1 -20.5q0 -16 -11.5 -28t-28.5 -12t-28.5 12t-11.5 28q0 10 1 20.5t5 18.5q8 23 20.5 42t27 36.5t29.5 34t29 34.5q22 25 38.5 56.5t16.5 70.5q0 55 -31 92t-93 37q-29 0 -52 -5t-43 -14q-19 -8 -32.5 -18t-27.5 -10t-26 10t-12 27q0 21 26 38 q39 25 79.5 35t88.5 10t85 -15t63 -41t39.5 -60.5t13.5 -74.5q0 -63 -20 -106.5t-52 -78.5q-23 -26 -48 -48.5t-39 -51.5zM281 45q0 -23 -15.5 -39t-37.5 -16q-23 0 -38.5 16t-15.5 39q0 22 15.5 37.5t38.5 15.5q22 0 37.5 -15.5t15.5 -37.5z"></glyph><glyph glyph-name="at" unicode="@" d="M512 14q-26 -11 -67 -19t-83 -8q-69 0 -124.5 23.5t-94 66.5t-59 103t-20.5 133q0 71 20 130t59 102t96 66.5t131 23.5q76 0 134 -24.5t97 -67.5t59 -100t20 -122q0 -35 -6.5 -65t-20.5 -51.5t-37.5 -34t-56.5 -12.5t-55.5 11.5t-36.5 31.5q-28 -29 -54.5 -41t-55.5 -12 q-32 0 -56.5 12.5t-41.5 34.5t-26 52.5t-9 65.5q0 74 38 119.5t112 45.5q37 0 61.5 -12t40 -33t23.5 -50.5t11 -64.5q1 -13 3 -28.5t7.5 -29t14.5 -22t24 -8.5q25 0 34 23t9 61q0 53 -14.5 98.5t-44 79t-72.5 52.5t-100 19q-56 0 -98.5 -18.5t-71.5 -51.5t-44 -79.5 t-15 -102.5t15 -102.5t44.5 -79.5t73 -51.5t101.5 -18.5q27 0 46.5 3.5t34 8.5t25.5 9.5t20 7.5q14 4 28.5 1t19.5 -23q5 -21 -8 -32.5t-30 -19.5zM432 320q-1 14 -3 29t-8 27.5t-18 21t-33 8.5q-36 0 -52 -25.5t-16 -70.5q0 -44 15 -68t47 -24q39 0 78 37q-4 15 -6 31.5 t-4 33.5z"></glyph><glyph glyph-name="A" unicode="A" d="M105 20q-5 -14 -16 -22t-22 -8q-17 0 -29.5 11t-12.5 29q0 3 0.5 8t1.5 7l195 617q7 23 18.5 38t33.5 15q23 0 34 -15t19 -38l195 -617q1 -2 1.5 -7t0.5 -8q0 -18 -12 -29t-30 -11q-11 0 -23 8t-16 22l-43 139h-253zM171 237h206l-103 339z"></glyph><glyph glyph-name="B" unicode="B" d="M153 405h115q24 0 48.5 7t44 22t32 37.5t12.5 52.5q0 20 -6 38.5t-20 33t-37 23t-57 8.5h-132v-222zM271 327h-118v-249h122q75 0 112 33.5t37 87.5q0 62 -43.5 95t-109.5 33zM286 0h-165q-20 0 -34 14t-14 34v609q0 20 14 34t34 14h169q49 0 85.5 -15.5t61 -41t36.5 -58 t12 -67.5q0 -32 -9.5 -57t-27 -44t-41 -33t-51.5 -26q25 -8 51.5 -18.5t48 -28.5t35 -46t13.5 -70t-15 -78.5t-43.5 -63.5t-68.5 -42.5t-91 -15.5z"></glyph><glyph glyph-name="C" unicode="C" d="M45 246v214q0 58 13.5 105t41.5 80.5t70 51.5t100 18q34 0 66 -7t56.5 -18.5t39.5 -27t15 -33.5q0 -14 -10 -24.5t-26 -10.5q-11 0 -17.5 4.5t-18.5 12.5q-44 31 -100 31q-42 0 -71 -12.5t-46.5 -36.5t-25 -57.5t-7.5 -75.5v-214q0 -42 7.5 -75.5t25 -57.5t46.5 -36.5 t71 -12.5q56 0 100 31q13 8 19 12.5t17 4.5q16 0 26 -10.5t10 -24.5q0 -18 -15 -33.5t-39.5 -27t-56.5 -18.5t-66 -7q-58 0 -100 18t-70 51.5t-41.5 80.5t-13.5 105z"></glyph><glyph glyph-name="D" unicode="D" d="M508 264q0 -51 -14 -99t-46 -84.5t-84.5 -58.5t-129.5 -22h-113q-20 0 -34 14t-14 34v610q0 20 14 34t34 14h113q77 0 129 -21t84.5 -56t46.5 -81.5t14 -96.5v-187zM428 264v187q0 37 -9.5 69.5t-30.5 56.5t-54.5 37.5t-82.5 13.5h-98v-550h98q50 0 83.5 14.5t54.5 40 t30 59t9 72.5z"></glyph><glyph glyph-name="E" unicode="E" d="M441 41q0 -17 -11.5 -29t-28.5 -12h-265q-25 0 -44 10t-19 37v611q0 17 13.5 32t33.5 15h271q17 0 28.5 -11.5t11.5 -28.5t-11.5 -27.5t-28.5 -10.5h-238v-234h219q15 0 27 -11t12 -28t-11 -28t-28 -11h-219v-237h248q16 0 28 -11t12 -26z"></glyph><glyph glyph-name="F" unicode="F" d="M153 315v-285q0 -16 -11.5 -28t-28.5 -12t-28.5 12t-11.5 28v628q0 17 13.5 32t33.5 15h271q17 0 28.5 -11.5t11.5 -28.5t-11.5 -27.5t-28.5 -10.5h-238v-234h219q15 0 27 -11t12 -28t-11 -28t-28 -11h-219z"></glyph><glyph glyph-name="G" unicode="G" d="M125 460v-214q0 -42 7.5 -75.5t25 -57.5t46.5 -36.5t71 -12.5q36 0 63 10t50 27v215h-97q-15 0 -26.5 11t-11.5 27t11.5 27t26.5 11h119q24 0 40.5 -11t16.5 -35v-239q0 -30 -18.5 -52t-47 -36.5t-63.5 -21t-68 -6.5q-58 0 -100 18t-70 51.5t-41.5 80.5t-13.5 105v214 q0 58 13.5 105t41.5 80.5t70 51.5t100 18q34 0 66 -7t56.5 -18.5t39.5 -27t15 -33.5q0 -14 -10 -24.5t-26 -10.5q-11 0 -17.5 4.5t-18.5 12.5q-44 31 -100 31q-42 0 -71 -12.5t-46.5 -36.5t-25 -57.5t-7.5 -75.5z"></glyph><glyph glyph-name="H" unicode="H" d="M506 31q0 -17 -11.5 -29t-28.5 -12q-16 0 -28 12t-12 29v283h-273v-283q0 -17 -11.5 -29t-28.5 -12t-28.5 12t-11.5 29v644q0 16 11.5 28t28.5 12t28.5 -12t11.5 -28v-283h273v283q0 16 12 28t28 12t28 -12t12 -28v-644z"></glyph><glyph glyph-name="I" unicode="I" d="M73 30v645q0 16 11.5 28t28.5 12t28.5 -12t11.5 -28v-645q0 -16 -11.5 -28t-28.5 -12t-28.5 12t-11.5 28z"></glyph><glyph glyph-name="J" unicode="J" d="M312 675v-450q0 -55 -10 -98.5t-33 -74t-62 -46.5t-97 -16q-10 0 -25 1t-28 5.5t-22.5 13.5t-9.5 25q0 19 12 29t23 10q8 0 23 -3.5t38 -3.5q35 0 56.5 11t33.5 31.5t16.5 50t4.5 65.5v450q0 17 11.5 28.5t28.5 11.5q16 0 28 -12t12 -28z"></glyph><glyph glyph-name="K" unicode="K" d="M420 9l-217 315l-50 -61v-232q0 -17 -11.5 -29t-28.5 -12t-28.5 12t-11.5 29v644q0 16 11.5 28t28.5 12t28.5 -12t11.5 -28v-291l253 312q5 8 15 13.5t21 5.5t24 -9.5t11 -30.5q-1 -14 -9 -25l-215 -264l233 -334q5 -9 5 -19q0 -14 -7.5 -28.5t-29.5 -14.5q-21 0 -34 19z "></glyph><glyph glyph-name="L" unicode="L" d="M438 39q0 -17 -11 -28t-27 -11h-282q-18 0 -31.5 13t-13.5 32v630q0 16 11.5 28t28.5 12t28.5 -12t11.5 -28v-598h247q15 0 26.5 -11t11.5 -27z"></glyph><glyph glyph-name="M" unicode="M" d="M628 673v-644q0 -16 -11.5 -27.5t-27.5 -11.5q-17 0 -29 11.5t-12 27.5v487l-161 -344q-12 -24 -39 -24q-26 0 -38 24l-161 344v-487q0 -16 -12.5 -27.5t-29.5 -11.5q-16 0 -27 11.5t-11 27.5v644q0 18 12 30t30 12q29 0 43 -26l195 -418l195 419q14 25 42 25 q18 0 30 -12.5t12 -29.5z"></glyph><glyph glyph-name="N" unicode="N" d="M482 -10q-12 0 -23.5 6t-17.5 17l-288 533v-515q0 -17 -12 -29t-29 -12t-28 12t-11 29v640q0 19 12 31.5t31 12.5q13 0 24.5 -6.5t17.5 -17.5l288 -532v515q0 17 12 29t29 12t28 -12t11 -29v-640q0 -18 -12 -31t-32 -13z"></glyph><glyph glyph-name="O" unicode="O" d="M275 -10q-57 0 -100.5 20t-72 54.5t-43 81.5t-14.5 100v214q0 52 12.5 98.5t40.5 81t71.5 55t105.5 20.5t105.5 -20.5t71.5 -55t40.5 -81t12.5 -98.5v-214q0 -53 -14.5 -100t-43 -81.5t-72 -54.5t-100.5 -20zM275 637q-41 0 -69.5 -12.5t-46.5 -36t-26 -56t-8 -72.5v-214 q0 -79 36.5 -128.5t113.5 -49.5t113.5 49.5t36.5 128.5v214q0 40 -8 72.5t-26 56t-46.5 36t-69.5 12.5z"></glyph><glyph glyph-name="P" unicode="P" d="M268 260h-115v-228q0 -17 -11.5 -29.5t-28.5 -12.5q-16 0 -28 12.5t-12 29.5v625q0 20 14 34t34 14h147q62 0 105 -18.5t69.5 -49.5t38.5 -71.5t12 -84.5q0 -107 -61 -164t-164 -57zM153 627v-289h115q72 0 108.5 35t36.5 109q0 27 -6 53t-22 46.5t-44.5 33t-72.5 12.5 h-115z"></glyph><glyph glyph-name="Q" unicode="Q" d="M383 -177q-66 0 -103 46.5t-42 123.5q-48 6 -84 28t-60.5 56t-36.5 77t-12 92v214q0 52 12.5 98.5t40.5 81t71.5 55t105.5 20.5t105.5 -20.5t71.5 -55t40.5 -81t12.5 -98.5v-214q0 -48 -12 -91t-35.5 -76.5t-58.5 -55.5t-82 -29q2 -55 22 -77t57 -22q8 0 16 0.5t13 0.5 q17 0 28 -10t11 -27q0 -26 -23 -31t-58 -5zM275 637q-41 0 -69.5 -12.5t-46.5 -36t-26 -56t-8 -72.5v-214q0 -79 36.5 -128.5t113.5 -49.5t113.5 49.5t36.5 128.5v214q0 40 -8 72.5t-26 56t-46.5 36t-69.5 12.5z"></glyph><glyph glyph-name="R" unicode="R" d="M511 505q0 -80 -41.5 -128t-113.5 -62l160 -263q5 -10 5 -23q0 -16 -15.5 -27t-27.5 -11q-22 0 -33 19l-177 300h-115v-278q0 -17 -12 -29.5t-29 -12.5q-16 0 -27.5 12.5t-11.5 29.5v625q0 20 13.5 34t32.5 14h174q62 0 103.5 -17.5t67 -45.5t36.5 -64t11 -73zM431 505 q0 22 -6 44t-21.5 39t-43 28t-71.5 11h-136v-240h142q66 0 101 30t35 88z"></glyph><glyph glyph-name="S" unicode="S" d="M360 191q0 24 -5.5 41t-13.5 29t-18.5 19t-19.5 12q-36 19 -81 32t-85 34.5t-67.5 58.5t-27.5 103q0 91 54 143t148 52q19 0 48 -2.5t56.5 -10t47 -21t19.5 -34.5q0 -15 -10.5 -26.5t-29.5 -11.5q-12 0 -23 4.5t-25.5 9.5t-32.5 9.5t-44 4.5q-24 0 -46.5 -5.5t-40 -18 t-28 -34t-10.5 -54.5q0 -25 6 -42t14.5 -28.5t18.5 -18t19 -11.5q36 -19 81.5 -32t85 -34.5t67 -58t27.5 -102.5q0 -49 -16.5 -88t-45.5 -65.5t-69.5 -40.5t-87.5 -14q-24 0 -55.5 4t-60 13t-48.5 23t-20 34q0 15 10.5 27t25.5 12q11 0 24.5 -5.5t31.5 -12t41 -12t52 -5.5 q67 0 100.5 32t33.5 91z"></glyph><glyph glyph-name="T" unicode="T" d="M201 30v597h-136q-17 0 -28.5 11.5t-11.5 27.5q0 13 11.5 26t28.5 13h352q16 0 28.5 -11t12.5 -28q0 -16 -12 -27.5t-29 -11.5h-136v-597q0 -16 -11.5 -28t-28.5 -12t-28.5 12t-11.5 28z"></glyph><glyph glyph-name="U" unicode="U" d="M507 230q0 -52 -15 -96t-43.5 -76t-69.5 -50t-93 -18q-53 0 -94.5 18t-69.5 50t-42.5 76t-14.5 96v443q0 18 12 30t29 12q16 0 27.5 -12.5t11.5 -29.5v-443q0 -72 34.5 -117t106.5 -45t106 46t34 116v443q0 17 11 29.5t28 12.5q18 0 30 -12.5t12 -29.5v-443z"></glyph><glyph glyph-name="V" unicode="V" d="M95 685l169 -556l169 556q4 14 16 22t23 8q18 0 30 -11t12 -29q0 -3 -0.5 -8t-1.5 -7l-195 -617q-8 -23 -19 -38t-34 -15q-22 0 -33.5 15t-18.5 38l-195 617q-1 2 -1.5 7t-0.5 8q0 18 12.5 29t29.5 11q11 0 22 -8t16 -22z"></glyph><glyph glyph-name="W" unicode="W" d="M503 47l-115 503l-116 -504q-5 -20 -16.5 -38t-36.5 -18q-22 0 -35.5 16.5t-18.5 39.5l-149 619q-1 0 -1 6v5q0 17 14.5 26t30.5 9q12 0 22 -7t14 -22l124 -533l116 508q7 28 16.5 43t35.5 15q24 0 34.5 -16t16.5 -42l116 -508l124 533q10 29 34 29q16 0 32 -8.5 t16 -27.5q0 -1 -2 -11l-149 -618q-5 -22 -17.5 -39t-35.5 -17t-36 17.5t-18 39.5z"></glyph><glyph glyph-name="X" unicode="X" d="M250 303l-159 -284q-5 -10 -14.5 -19.5t-23.5 -9.5q-15 0 -26.5 12.5t-11.5 28.5q0 6 2 12t4 10l182 314l-167 287q-5 10 -5 22q0 15 11 27t26 12q14 0 24.5 -10.5t18.5 -24.5l139 -249l139 249q7 11 18 23t26 12q14 0 25 -11.5t11 -28.5q0 -11 -5 -21l-167 -287 l182 -314q2 -4 4 -10t2 -12q0 -16 -11.5 -28.5t-25.5 -12.5t-23.5 9t-15.5 20z"></glyph><glyph glyph-name="Y" unicode="Y" d="M238 -10q-17 0 -29 12.5t-12 29.5v245l-178 378q-4 10 -4 19q0 17 12.5 29t28.5 12q9 0 17.5 -4t13.5 -12l151 -329l151 329q5 8 13.5 12t17.5 4q16 0 28.5 -12t12.5 -29q0 -9 -4 -19l-178 -380v-243q0 -17 -12 -29.5t-29 -12.5z"></glyph><glyph glyph-name="Z" unicode="Z" d="M454 41q0 -17 -11.5 -29t-28.5 -12h-343q-18 0 -30 13t-12 31q0 7 3.5 17t6.5 15l308 549h-277q-17 0 -28 11.5t-11 28.5q0 16 11 28t28 12h339q19 0 31 -12.5t12 -30.5q0 -9 -3 -16.5t-7 -14.5l-310 -551h282q16 0 28 -11t12 -28z"></glyph><glyph glyph-name="bracketleft" unicode="[" d="M268 -83q0 -22 -16.5 -30t-34.5 -8h-102q-15 0 -26.5 11.5t-11.5 26.5v846q0 21 15.5 29.5t36.5 8.5h102q14 0 25.5 -11t11.5 -26q0 -22 -16 -30t-34 -8h-62v-772h62q20 0 35 -8t15 -29z"></glyph><glyph glyph-name="backslash" unicode="\" d="M-24 707q-2 4 -2 7q-2 15 7 27.5t23 15.5q14 2 25.5 -4t16.5 -20l257 -724q2 -6 2 -8q2 -16 -6.5 -28.5t-23.5 -15.5q-14 -2 -25.5 4.5t-16.5 20.5z"></glyph><glyph glyph-name="bracketright" unicode="]" d="M216 -83q0 -16 -11 -27t-27 -11h-102q-19 0 -35.5 8t-16.5 30t16 29.5t35 7.5h62v772h-62q-18 0 -34.5 7.5t-16.5 30.5q0 21 16.5 29t35.5 8h102q14 0 26 -12t12 -26v-846z"></glyph><glyph glyph-name="asciicircum" unicode="^" d="M162 650l-105 -130q-3 -5 -10 -9t-15 -4q-14 0 -22 7.5t-8 19.5q1 17 19 38l111 136q12 15 30 15t30 -15l111 -136q18 -21 19 -38q0 -12 -8 -19.5t-22 -7.5q-8 0 -15 4t-10 9z"></glyph><glyph glyph-name="underscore" unicode="_" d="M5 -161h590q15 0 27 -11t12 -28t-11 -28t-28 -11h-590q-17 0 -28 11t-11 28t12 28t27 11z"></glyph><glyph glyph-name="grave" unicode="`" d="M95 705l78 -81q5 -6 5 -15q0 -16 -10 -25.5t-23 -9.5q-10 0 -17 5t-15 13l-81 86q-3 4 -4 8.5t-1 8.5q0 14 10 23.5t21 9.5q14 0 20 -6.5t17 -16.5z"></glyph><glyph glyph-name="a" unicode="a" d="M322 338q0 107 -107 107q-26 0 -42.5 -6t-33.5 -15q-2 -1 -10 -4.5t-16 -3.5q-14 0 -20.5 11t-7.5 22q-1 17 10.5 29.5t32 20.5t46 11.5t51.5 3.5q94 0 134.5 -51t40.5 -151v-220q0 -30 18 -30q2 0 3.5 0.5t4.5 0.5q14 0 21.5 -10.5t7.5 -23.5q0 -19 -14 -26.5t-31 -7.5 q-25 0 -44.5 13.5t-30.5 36.5q-58 -53 -137 -53q-78 0 -115.5 41.5t-37.5 109.5v4q0 148 176 148q53 0 101 -14v57zM220 229q-31 0 -50 -6.5t-29.5 -18t-14.5 -26.5t-4 -32v-4q0 -35 18.5 -57.5t69.5 -22.5q32 0 59 10.5t53 33.5v108q-25 8 -52 11.5t-50 3.5z"></glyph><glyph glyph-name="b" unicode="b" d="M152 396v-246q0 -41 28 -63.5t77 -22.5q54 0 79.5 28t25.5 78v188q0 42 -22.5 65t-73.5 23q-38 0 -65.5 -13.5t-48.5 -36.5zM74 150v537q0 15 10 26.5t29 11.5t29 -11.5t10 -26.5v-214q28 20 60 30.5t73 10.5q43 0 72.5 -12t48 -33t26.5 -49.5t8 -61.5v-188 q0 -37 -11.5 -69.5t-34.5 -56.5t-57 -38t-80 -14q-43 0 -77.5 12.5t-57.5 33.5t-35.5 50t-12.5 62z"></glyph><glyph glyph-name="c" unicode="c" d="M45 176v151q0 39 10.5 72.5t32 58t55.5 39t81 14.5q18 0 41.5 -3t45.5 -10t37 -18.5t15 -29.5q0 -14 -10 -24t-24 -10q-7 0 -16 3q-18 9 -36.5 16t-44.5 7q-59 0 -84 -30t-25 -85v-151q0 -55 25 -85t84 -30q26 0 44.5 7t36.5 16q9 3 16 3q14 0 24 -10t10 -24 q0 -18 -15 -29.5t-37 -18.5t-45.5 -10t-41.5 -3q-47 0 -81 14.5t-55.5 39t-32 58t-10.5 72.5z"></glyph><glyph glyph-name="d" unicode="d" d="M212 510q25 0 54.5 -5t56.5 -14v196q0 16 10 27t29 11t29 -11t10 -27v-573q0 -21 5.5 -35t20.5 -25q3 -5 5 -9t2 -11q0 -16 -11 -25.5t-24 -9.5q-17 0 -30.5 9t-22.5 23q-33 -17 -68.5 -28t-73.5 -11q-79 0 -119 52.5t-40 136.5v127q0 45 8 82t27.5 63.5t51.5 41.5t80 15 zM323 114v307q-25 11 -54 16t-47 5q-55 0 -77 -32t-22 -102v-127q0 -119 97 -119q24 0 51.5 7.5t53.5 21.5q-2 6 -2 12v11z"></glyph><glyph glyph-name="e" unicode="e" d="M232 61q32 0 55 8t49 20q2 1 5.5 2t8.5 1q15 0 25 -10.5t10 -24.5q0 -18 -17.5 -30.5t-43 -20t-53.5 -11t-48 -3.5q-42 0 -75.5 12.5t-56 35t-34.5 53t-12 65.5v187q0 36 12 67t35 53.5t57 35.5t79 13q84 0 125 -44t41 -119q0 -69 -39.5 -108.5t-129.5 -39.5 q-23 0 -49.5 2t-52.5 7v-59q0 -42 27.5 -67t81.5 -25zM317 351q0 49 -23.5 70.5t-67.5 21.5q-49 0 -76 -24.5t-27 -66.5v-76q28 -4 59 -5.5t46 -1.5q29 0 46 7t27 18.5t13 26.5t3 30z"></glyph><glyph glyph-name="f" unicode="f" d="M74 537q0 48 13.5 82.5t36.5 57.5t55.5 35t69.5 13q6 0 21 -0.5t30.5 -4.5t27.5 -13.5t12 -26.5t-11.5 -27t-26.5 -10q-13 0 -26.5 3.5t-34.5 3.5q-45 0 -67 -31t-22 -74v-62h104q15 0 25.5 -10.5t10.5 -26.5t-10.5 -26.5t-25.5 -10.5h-104v-376q0 -16 -10 -27t-29 -11 t-29 11t-10 27v504z"></glyph><glyph glyph-name="g" unicode="g" d="M231 514q35 0 68.5 -8.5t62.5 -25.5q17 31 40 44.5t40 13.5q16 0 26.5 -10t10.5 -25q0 -8 -2.5 -13t-4.5 -7q-14 -14 -24.5 -24t-17 -20t-9.5 -22.5t-3 -30.5v-62q0 -38 -11.5 -71t-34 -57t-56.5 -38t-79 -14q-46 0 -79 13q-7 -13 -9.5 -25t-2.5 -21q0 -13 5.5 -21.5 t13.5 -13.5t17.5 -7t17.5 -2h42q43 0 79.5 -9t63.5 -27t42 -46t15 -65q0 -38 -15.5 -68t-43 -51t-65 -32.5t-81.5 -11.5q-42 0 -77.5 10.5t-61 30t-39.5 48.5t-14 65q0 37 13.5 66t39.5 54q-17 17 -23.5 38.5t-6.5 38.5q0 18 7.5 40t30.5 42q-54 51 -54 141q0 39 11 72.5 t33.5 58t56 38.5t78.5 14zM340 385q0 8 0.5 15t1.5 14q-23 14 -48 22t-53 8q-56 0 -83.5 -29.5t-27.5 -85.5q0 -51 25 -82t82 -31q54 0 78.5 28t24.5 78v63zM202 -5q-23 0 -45 5q-34 -30 -34 -78q0 -45 29 -69t87 -24q54 0 89.5 22t35.5 67q0 77 -120 77h-42z"></glyph><glyph glyph-name="h" unicode="h" d="M151 31q0 -17 -10.5 -28t-27.5 -11t-28 11t-11 28v661q0 15 10.5 27t27.5 12t28 -11t11 -28v-220q26 20 57.5 31t67.5 11q80 0 118 -46.5t38 -119.5v-317q0 -17 -11.5 -28t-27.5 -11q-17 0 -28 11t-11 28v316q0 46 -20 70t-67 24q-31 0 -62.5 -14t-53.5 -43v-353z"></glyph><glyph glyph-name="i" unicode="i" d="M170 668q0 -20 -14 -34t-34 -14t-34 14t-14 34t14 34t34 14t34 -14t14 -34zM161 31q0 -17 -11 -28t-28 -11t-28 11t-11 28v441q0 16 11 27.5t28 11.5t28 -11.5t11 -27.5v-441z"></glyph><glyph glyph-name="j" unicode="j" d="M161 472v-487q0 -79 -36.5 -128t-104.5 -59q-6 -1 -10 -1h-9q-27 0 -33 26q-5 20 7 30.5t23 12.5q41 9 63 34.5t22 80.5v491q0 16 11 27.5t28 11.5t28 -11.5t11 -27.5zM170 668q0 -20 -14 -34t-34 -14t-34 14t-14 34t14 34t34 14t34 -14t14 -34z"></glyph><glyph glyph-name="k" unicode="k" d="M152 686v-373l181 188q4 5 10.5 7t13.5 2q16 0 26.5 -10.5t10.5 -25.5q0 -16 -10 -26l-147 -150l169 -250q3 -5 4.5 -11.5t1.5 -11.5q-1 -15 -11.5 -24t-25.5 -9q-20 0 -32 19l-155 236l-36 -37v-179q0 -17 -11 -28t-28 -11t-28 11t-11 28v655q0 17 11 28t28 11t28 -11 t11 -28z"></glyph><glyph glyph-name="l" unicode="l" d="M74 94v592q0 16 11 27.5t28 11.5t28 -11t11 -28v-592q0 -17 2.5 -27.5t11.5 -19.5q2 -3 4.5 -8t2.5 -11q0 -15 -10.5 -25.5t-25.5 -10.5q-9 0 -20 3.5t-20.5 14t-16 30.5t-6.5 54z"></glyph><glyph glyph-name="m" unicode="m" d="M625 31v311q0 42 -22.5 71t-68.5 29q-32 0 -62 -15t-48 -38q5 -23 5 -45v-313q0 -16 -9.5 -27t-29.5 -11t-29.5 11t-9.5 27v290q0 27 -3 49t-12 38t-25 25t-43 9q-33 0 -64 -12t-52 -28q3 -18 3 -31v-340q0 -16 -9.5 -27t-29.5 -11t-29.5 11t-9.5 27v340q0 21 -1.5 32 t-4 18t-6 10.5t-6.5 9.5q-2 3 -4.5 7.5t-2.5 12.5q0 15 10.5 25t26.5 10q13 0 22.5 -7.5t17.5 -19.5q33 21 70 33t76 12q42 0 69.5 -13t46.5 -38q32 24 67.5 37.5t77.5 13.5q81 0 124 -47t43 -123v-313q0 -16 -9.5 -27t-29.5 -11t-29.5 11t-9.5 27z"></glyph><glyph glyph-name="n" unicode="n" d="M155 371v-340q0 -16 -9.5 -27t-29.5 -11t-29.5 11t-9.5 27v340q0 21 -1.5 32t-4 18t-6 10.5t-6.5 9.5q-2 3 -4.5 7.5t-2.5 12.5q0 15 10.5 25t26.5 10q14 0 24 -8t18 -21q33 23 70 34t73 11q80 0 119.5 -52t39.5 -137v-292q0 -16 -10 -27t-29 -11t-29 11t-10 27v292 q0 57 -23.5 88t-68.5 31q-29 0 -57 -11t-54 -31q3 -16 3 -29z"></glyph><glyph glyph-name="o" unicode="o" d="M232 -8q-46 0 -81 14t-58.5 38t-35.5 56.5t-12 69.5v167q0 38 12 70.5t35.5 56.5t58.5 37.5t81 13.5t81 -13.5t58.5 -37.5t35.5 -56.5t12 -70.5v-167q0 -37 -12 -69.5t-35.5 -56.5t-58.5 -38t-81 -14zM232 64q54 0 81.5 28t27.5 78v168q0 49 -27.5 77t-81.5 28t-81.5 -28 t-27.5 -77v-168q0 -50 27.5 -78t81.5 -28z"></glyph><glyph glyph-name="p" unicode="p" d="M266 -7q-26 0 -55 5t-56 14v-189q0 -16 -10 -27t-29 -11t-29 11t-10 27v546q0 25 -3.5 40.5t-12.5 29.5q-3 5 -5 9t-2 11q0 16 11 25.5t24 9.5q12 0 21.5 -6.5t17.5 -17.5q34 18 70.5 31t75.5 13q79 0 119 -52.5t40 -136.5v-130q0 -45 -8 -82t-27.5 -63.5t-51.5 -41.5 t-80 -15zM155 369v-287q24 -11 53 -16t48 -5q55 0 77 32t22 102v130q0 119 -97 119q-26 0 -54 -9t-54 -25q5 -25 5 -41z"></glyph><glyph glyph-name="q" unicode="q" d="M333 107v246q0 42 -28 65.5t-77 23.5q-54 0 -79.5 -29t-25.5 -80v-158q0 -54 22 -84t76 -30q31 0 60 11t52 35zM411 353v-530q0 -16 -9.5 -27t-29.5 -11t-29.5 11t-9.5 27v207q-27 -17 -58.5 -27t-69.5 -10q-45 0 -76 14t-49.5 38t-26.5 57.5t-8 72.5v158q0 38 11.5 71 t34.5 57.5t57 38.5t80 14q44 0 78 -12.5t57 -34t35.5 -51t12.5 -63.5z"></glyph><glyph glyph-name="r" unicode="r" d="M155 369v-338q0 -17 -11 -28t-28 -11t-28 11t-11 28v338q0 25 -3.5 40.5t-12.5 29.5q-3 5 -5 9t-2 11q0 16 11 25.5t25 9.5q12 0 22 -7.5t18 -19.5q32 20 70 31.5t67 11.5q30 0 41 -11t11 -27q0 -19 -11.5 -30t-27.5 -10q-31 1 -60 -3.5t-67 -32.5q1 -8 1.5 -14.5 t0.5 -12.5z"></glyph><glyph glyph-name="s" unicode="s" d="M53 370q0 65 41 104.5t121 39.5q20 0 43 -3t43 -9.5t33.5 -17t13.5 -26.5q0 -14 -10 -25t-26 -11q-8 0 -18 5q-16 8 -32.5 13t-43.5 5q-89 0 -89 -70q0 -23 10.5 -37t36.5 -27t58 -23t60.5 -27.5t48 -45.5t19.5 -77q0 -68 -42 -107t-126 -39q-19 0 -44.5 2.5t-48 9 t-38.5 18t-16 28.5q0 13 9.5 24.5t27.5 11.5q5 0 6.5 -0.5t3.5 -1.5q21 -8 45.5 -15.5t54.5 -7.5q42 0 67 17.5t25 56.5q0 27 -11 40.5t-26 21.5q-24 13 -57.5 23t-64 27t-52.5 45.5t-22 77.5z"></glyph><glyph glyph-name="t" unicode="t" d="M74 203v418q0 16 10 27t29 11t29 -11t10 -27v-138h104q15 0 25.5 -10.5t10.5 -26.5t-10.5 -26.5t-25.5 -10.5h-104v-199q0 -39 2.5 -65.5t11.5 -43.5t25 -24.5t43 -7.5q5 0 9.5 0.5t9.5 0.5q17 0 34.5 -6t17.5 -30q0 -26 -18 -32t-39 -6q-52 0 -86 13t-53.5 39t-27 64.5 t-7.5 90.5z"></glyph><glyph glyph-name="u" unicode="u" d="M352 123v350q0 16 9.5 27t29.5 11t29.5 -11t9.5 -27v-350q0 -21 1.5 -32t4.5 -18t6 -10.5t6 -9.5q2 -3 4.5 -8t2.5 -12q0 -14 -10.5 -24.5t-26.5 -10.5q-14 0 -24.5 8t-18.5 22q-33 -19 -70 -27.5t-72 -8.5q-80 0 -119.5 52t-39.5 137v292q0 16 10 27t29 11t29 -11 t10 -27v-292q0 -57 23.5 -88t68.5 -31q58 0 110 33q-1 8 -1.5 15t-0.5 13z"></glyph><glyph glyph-name="v" unicode="v" d="M404 462l-136 -423q-8 -25 -19.5 -36t-31.5 -11t-31.5 11t-19.5 35l-139 427q-6 18 7.5 32t30.5 14q11 0 20.5 -6.5t14.5 -19.5l117 -377l115 377q4 11 14 18.5t21 7.5q18 0 30 -14.5t7 -34.5z"></glyph><glyph glyph-name="w" unicode="w" d="M629 465l-115 -428q-7 -23 -17.5 -34t-32.5 -11q-16 0 -28.5 8.5t-17.5 25.5l-90 351l-89 -351q-10 -34 -47 -34q-20 0 -32 12t-18 33l-116 431q-1 2 -1 6q0 14 11 25.5t28 11.5q12 0 22 -7t14 -21l94 -368q23 91 45 180t45 181q4 15 15.5 25t29.5 10q17 0 28 -10t15 -25 q22 -92 45 -181t46 -180l93 368q3 12 13 20t23 8q15 0 26.5 -11t11.5 -28q0 -2 -0.5 -3.5t-0.5 -3.5z"></glyph><glyph glyph-name="x" unicode="x" d="M261 258l140 -208q5 -7 5 -17q0 -17 -11 -29t-29 -12q-14 0 -21.5 6.5t-16.5 20.5l-113 174l-118 -181q-13 -20 -32 -20q-17 0 -28.5 11t-11.5 28q0 10 5 17l140 208l-131 198q-6 8 -6 17q0 16 11 28t28 12t26.5 -11.5t17.5 -22.5l101 -155l105 163q8 12 15.5 19t21.5 7 t26 -10.5t12 -26.5q0 -11 -5 -19z"></glyph><glyph glyph-name="y" unicode="y" d="M397 460l-122 -397q-18 -58 -35.5 -106.5t-41.5 -83.5t-57 -55t-82 -21q-17 0 -28.5 10.5t-11.5 27.5q0 14 10 25t27 12q24 1 41.5 8.5t31.5 23t25.5 39.5t22.5 59l-159 459q-2 2 -2 6.5v7.5q0 16 11 26t28 10q11 0 20.5 -6.5t14.5 -19.5l125 -379l109 379q5 13 15 19.5 t21 6.5q15 0 27 -11t12 -28q0 -4 -2 -12z"></glyph><glyph glyph-name="z" unicode="z" d="M367 465q0 -14 -9 -28l-247 -365h221q16 0 26.5 -10.5t10.5 -25.5t-10.5 -25.5t-26.5 -10.5h-277q-16 0 -28 12t-12 30q0 14 7 25l248 366h-209q-15 0 -25.5 10.5t-10.5 25.5q0 16 10.5 26t25.5 10h265q17 0 29 -10.5t12 -29.5z"></glyph><glyph glyph-name="braceleft" unicode="{" d="M70 205q-17 0 -28 9t-11 27t11 27t28 9q38 0 57 21.5t22 68.5q3 46 5.5 94.5t5.5 90.5q4 57 47.5 90t109.5 33q21 0 40 -7t19 -36q0 -13 -4.5 -19.5t-10.5 -9t-13.5 -2.5t-13.5 1t-14 1.5t-13 0.5q-26 0 -47.5 -16.5t-23.5 -47.5l-8 -167q-2 -47 -20 -81t-52 -51 q34 -17 52 -51t20 -81l8 -167q2 -31 23 -47.5t47 -16.5q5 0 13.5 0.5t14.5 1.5t13.5 1t13.5 -2.5t10.5 -9t4.5 -19.5q0 -29 -19 -36t-40 -7q-66 0 -109.5 33t-47.5 90l-11 185q-3 47 -22 68.5t-57 21.5z"></glyph><glyph glyph-name="bar" unicode="|" d="M77 -204v927q0 14 10.5 25t25.5 11t25.5 -11t10.5 -25v-927q0 -14 -10.5 -25t-25.5 -11t-25.5 11t-10.5 25z"></glyph><glyph glyph-name="braceright" unicode="}" d="M347 205q-38 0 -57 -21.5t-22 -68.5l-11 -185q-4 -57 -47.5 -90t-109.5 -33q-21 0 -40 7t-19 36q0 13 4.5 19.5t10.5 9t13.5 2.5t13.5 -1t14.5 -1.5t13.5 -0.5q26 0 47 16.5t23 47.5l8 167q2 47 19.5 81t51.5 51q-34 17 -51.5 51t-19.5 81l-8 167q-2 31 -23.5 47.5 t-47.5 16.5q-5 0 -13 -0.5t-14 -1.5t-13.5 -1t-13.5 2.5t-10.5 9t-4.5 19.5q0 29 19 36t40 7q66 0 109.5 -33t47.5 -90q3 -42 5.5 -90.5t5.5 -94.5q3 -47 22 -68.5t57 -21.5q17 0 28 -9t11 -27t-11 -27t-28 -9z"></glyph><glyph glyph-name="asciitilde" unicode="~" d="M393 352q0 -16 -9.5 -29t-24 -22.5t-32 -15t-33.5 -6.5q-19 0 -35 5.5t-30.5 12.5t-27.5 13.5t-27 7.5q-16 0 -26.5 -5t-18.5 -11.5t-15 -11.5t-17 -5q-14 0 -24 9t-12 24q0 17 8 31t22 24.5t32 16.5t37 6t34.5 -5.5t29.5 -12.5t27.5 -13t28.5 -8q17 0 27 5t17.5 11 t14.5 11.5t18 6.5q14 0 25 -11t11 -28z"></glyph><glyph glyph-name="exclamdown" unicode="¡" d="M83 298q0 13 8.5 22.5t21.5 9.5q12 0 21 -9.5t9 -22.5l10 -473q0 -16 -11.5 -28t-28.5 -12t-28.5 12t-11.5 28zM168 455q0 -22 -15.5 -37.5t-37.5 -15.5q-23 0 -38.5 15.5t-15.5 37.5q0 23 15.5 39t38.5 16q22 0 37.5 -16t15.5 -39z"></glyph><glyph glyph-name="cent" unicode="¢" d="M224 -28v51q-40 4 -68.5 19.5t-47 40t-27.5 56t-9 67.5v101q0 36 9 67t27.5 55.5t47 40t68.5 19.5v44q0 11 7.5 18.5t18.5 7.5t18.5 -7.5t7.5 -18.5v-43q18 -1 38 -5.5t37 -11.5t28 -17.5t11 -25.5q0 -14 -10 -24t-24 -10q-7 0 -16 3q-15 8 -30 14t-34 8v-330 q19 2 34 8.5t30 14.5q9 3 16 3q14 0 24 -10t10 -24q0 -15 -11 -25.5t-28 -18t-37 -11t-38 -5.5v-51q0 -11 -7.5 -18.5t-18.5 -7.5t-18.5 7.5t-7.5 18.5zM150 206q0 -46 17 -74.5t57 -37.5v324q-40 -8 -57 -36.5t-17 -74.5v-101z"></glyph><glyph glyph-name="yen" unicode="¥" d="M79 369h74l-134 286q-4 10 -4 19q0 17 12.5 29t28.5 12q9 0 17.5 -4t13.5 -12l151 -329l151 329q5 8 13.5 12t17.5 4q16 0 28.5 -12t12.5 -29q0 -9 -4 -19l-135 -286h75q15 0 27 -10.5t12 -26.5t-11 -26.5t-28 -10.5h-109l-9 -20v-36h118q15 0 27 -10.5t12 -26.5 t-11 -26.5t-28 -10.5h-118v-133q0 -17 -12 -29.5t-29 -12.5t-29 12.5t-12 29.5v133h-118q-17 0 -28 10.5t-11 26.5t12 26.5t27 10.5h118v38l-9 18h-109q-17 0 -28 10.5t-11 26.5t12 26.5t27 10.5z"></glyph><glyph glyph-name="dieresis" unicode="¨" d="M335 639q0 -20 -13.5 -34.5t-33.5 -14.5t-34 14.5t-14 34.5q0 19 14 33t34 14t33.5 -13.5t13.5 -33.5zM166 639q0 -20 -14 -34.5t-34 -14.5t-33 14.5t-13 34.5q0 19 13 33t33 14t34 -13.5t14 -33.5z"></glyph><glyph glyph-name="copyright" unicode="©" d="M676 313q0 -71 -20 -130t-59 -102t-96 -66.5t-131 -23.5t-131 23.5t-96 66.5t-59 102t-20 130t20 130t59 102t96 66.5t131 23.5t131 -23.5t96 -66.5t59 -102t20 -130zM616 313q0 58 -16 106t-47.5 82.5t-77 54t-105.5 19.5t-105.5 -19.5t-77 -54t-47.5 -82.5t-16 -106 t16 -106t47.5 -82.5t77 -54t105.5 -19.5t105.5 19.5t77 54t47.5 82.5t16 106zM236 283v61q0 31 8.5 57.5t25.5 46.5t44.5 31.5t64.5 11.5q14 0 33.5 -2.5t36.5 -8t29 -15t12 -23.5q0 -11 -8 -19t-19 -8q-3 0 -6 0.5t-7 1.5q-14 8 -28.5 13.5t-35.5 5.5q-48 0 -68 -24 t-20 -68v-61q0 -45 20 -68.5t68 -23.5q21 0 35.5 5.5t28.5 12.5q8 3 13 3q11 0 19 -8.5t8 -19.5q0 -14 -12 -23t-29 -14.5t-36.5 -8t-33.5 -2.5q-37 0 -64.5 11.5t-44.5 31t-25.5 46.5t-8.5 58z"></glyph><glyph glyph-name="guillemotleft" unicode="«" d="M132 258l140 -208q5 -7 5 -17q0 -17 -11 -29t-29 -12q-14 0 -21.5 6.5t-16.5 20.5l-158 237l152 229q8 12 15.5 19t21.5 7t26 -10.5t12 -26.5q0 -11 -5 -19zM292 256l93 -142q5 -7 5 -19q0 -16 -12 -26.5t-26 -10.5t-21.5 7t-15.5 19l-114 172l114 172q8 12 15.5 19 t21.5 7t26 -10.5t12 -26.5q0 -11 -5 -19z"></glyph><glyph glyph-name="registered" unicode="®" d="M636 423q0 -64 -18.5 -117.5t-54.5 -92.5t-89.5 -60.5t-123.5 -21.5t-123.5 21.5t-89.5 60.5t-54.5 92.5t-18.5 117.5q0 66 18.5 121.5t54.5 95.5t89.5 62.5t123.5 22.5t123.5 -22.5t89.5 -62.5t54.5 -95.5t18.5 -121.5zM576 423q0 53 -14.5 97.5t-43 76.5t-71 50 t-97.5 18t-97.5 -18t-71 -50t-43 -76.5t-14.5 -97.5q0 -51 14.5 -93.5t43 -73.5t71 -48t97.5 -17t97.5 17t71 48t43 73.5t14.5 93.5zM461 486q0 -32 -14 -54t-38 -33l64 -97q2 -5 2.5 -6t0.5 -6q0 -8 -11.5 -13.5t-20.5 -5.5q-18 0 -26 10l-69 108h-47v-93q0 -10 -9.5 -17.5 t-21.5 -7.5q-11 0 -20 7t-9 18v255q0 14 10 24t23 10h77q30 0 51 -8.5t34 -22.5t18.5 -32t5.5 -36zM401 486q0 14 -9.5 27t-41.5 13h-48v-79h51q48 0 48 39z"></glyph><glyph glyph-name="macron" unicode="¯" d="M362 637q0 -15 -10.5 -25.5t-25.5 -10.5h-249q-16 0 -26.5 10.5t-10.5 25.5t10.5 26t26.5 11h249q15 0 25.5 -11t10.5 -26z"></glyph><glyph glyph-name="degree" unicode="°" d="M196 436q-34 0 -60.5 11t-44.5 30t-27 44.5t-9 54.5t9 54.5t27 44.5t44.5 30t60.5 11q35 0 61 -11t44 -30t27 -44.5t9 -54.5t-9 -54.5t-27 -44.5t-44 -30t-61 -11zM196 498q73 0 73 80q0 36 -17.5 56t-55.5 20t-55.5 -20t-17.5 -56q0 -80 73 -80z"></glyph><glyph glyph-name="plusminus" unicode="±" d="M211 175v170h-160q-17 0 -28 11t-11 28t12 28t27 11h160v170q0 15 11 27t28 12t28 -11t11 -28v-170h160q15 0 27 -11t12 -28t-11 -28t-28 -11h-160v-170q0 -17 -11 -28t-28 -11t-28 12t-11 27zM51 78h398q15 0 27 -11t12 -28t-11 -28t-28 -11h-398q-17 0 -28 11t-11 28 t12 28t27 11z"></glyph><glyph glyph-name="twosuperior" unicode="²" d="M227 411q0 -10 -7 -15.5t-15 -5.5h-162q-12 0 -19.5 6t-7.5 17q0 4 1 9.5t4 11.5q14 34 38.5 61t49.5 51q8 8 21.5 22.5t21.5 23.5q10 9 18 24t8 33q0 26 -14 42.5t-42 16.5q-11 0 -22 -2.5t-22 -6.5l-13 -6l-9 -4.5t-10 -2.5q-8 0 -16.5 6t-8.5 15q0 8 2 11.5t4 5.5 q26 17 49 23.5t46 6.5q50 0 76.5 -28.5t26.5 -70.5q0 -32 -10 -55t-24 -40q-7 -8 -15.5 -16.5l-16.5 -16.5l-10 -10q-21 -20 -40 -40t-31 -41h127q8 0 15 -7t7 -18z"></glyph><glyph glyph-name="threesuperior" unicode="³" d="M210 699l-78 -100q39 -3 65.5 -29t26.5 -71q0 -19 -6 -39.5t-18.5 -37t-32 -27t-47.5 -10.5q-7 0 -24 1.5t-33.5 5.5t-29.5 11.5t-13 20.5q0 11 6.5 18t17.5 7q3 0 15 -6q9 -5 21 -9.5t31 -4.5t31.5 6.5t20 16t10.5 22t3 24.5q0 32 -18 46t-44 14q-11 0 -17 -3l-3 -2 q-1 -1 -8 -1q-13 0 -19 12.5t2 23.5l82 108h-99q-11 0 -18.5 6t-7.5 16q0 11 7.5 19t18.5 8h137q24 0 24 -29q0 -5 -0.5 -10t-2.5 -7z"></glyph><glyph glyph-name="acute" unicode="´" d="M82 624l78 81q11 10 17 16.5t20 6.5q11 0 21 -9.5t10 -23.5q0 -4 -1 -8.5t-4 -8.5l-81 -86q-9 -8 -15.5 -13t-16.5 -5q-14 0 -23.5 9.5t-9.5 25.5q0 9 5 15z"></glyph><glyph glyph-name="periodcentered" unicode="·" d="M178 274q0 -23 -15.5 -38.5t-38.5 -15.5q-22 0 -37.5 15.5t-15.5 38.5q0 22 15.5 37.5t37.5 15.5q23 0 38.5 -15.5t15.5 -37.5z"></glyph><glyph glyph-name="cedilla" unicode="¸" d="M245 -128q0 -18 -8.5 -35.5t-25.5 -29.5t-43.5 -17.5t-61.5 -0.5q-23 3 -40 16.5t-8 30.5q7 13 19 10t34 -8q35 -7 52 8.5t17 32.5q0 18 -15.5 26t-44.5 10q-23 2 -31.5 8t-5.5 24l13 73h49l-10 -60q62 -1 86 -25t24 -63z"></glyph><glyph glyph-name="onesuperior" unicode="¹" d="M127 407v278l-52 -36q-6 -4 -11.5 -6.5t-11.5 -2.5q-10 0 -17 6.5t-7 14.5q0 12 13 22l97 61q8 5 14 5q11 0 18 -7.5t7 -19.5v-315q0 -8 -7 -15t-17 -7q-11 0 -18.5 7t-7.5 15z"></glyph><glyph glyph-name="ordmasculine" unicode="º" d="M192 346q-70 0 -106 41.5t-36 102.5v80q0 62 36 103.5t106 41.5q71 0 106.5 -41.5t35.5 -103.5v-80q0 -61 -35.5 -102.5t-106.5 -41.5zM192 652q-42 0 -58.5 -22.5t-16.5 -63.5v-78q0 -38 18 -59t57 -21t57 21t18 59v78q0 41 -16.5 63.5t-58.5 22.5z"></glyph><glyph glyph-name="guillemotright" unicode="»" d="M159 50l140 208l-131 197q-5 8 -5 19q0 16 12 26.5t26 10.5t21.5 -7t15.5 -19l152 -229l-158 -237q-9 -14 -16.5 -20.5t-21.5 -6.5q-18 0 -29 12t-11 29q0 10 5 17zM46 114l93 142l-93 142q-5 8 -5 19q0 16 12 26.5t26 10.5t21.5 -7t15.5 -19l114 -172l-114 -172 q-8 -12 -15.5 -19t-21.5 -7t-26 10.5t-12 26.5q0 12 5 19z"></glyph><glyph glyph-name="questiondown" unicode="¿" d="M196 251q4 8 5 18.5t1 20.5q0 16 11.5 28t28.5 12t28.5 -12t11.5 -28q0 -10 -1 -20.5t-5 -18.5q-8 -23 -20.5 -42t-27 -36.5t-29.5 -34t-29 -34.5q-22 -25 -38.5 -56.5t-16.5 -70.5q0 -55 31 -92t93 -37q29 0 52 5t43 14q19 8 32.5 18t27.5 10t26 -10t12 -27 q0 -21 -26 -38q-39 -25 -79.5 -35t-88.5 -10t-85 15t-63 41t-39.5 60.5t-13.5 74.5q0 63 20 106.5t52 78.5q23 26 48 48.5t39 51.5zM188 455q0 23 15.5 39t37.5 16q23 0 38.5 -16t15.5 -39q0 -22 -15.5 -37.5t-38.5 -15.5q-22 0 -37.5 15.5t-15.5 37.5z"></glyph><glyph glyph-name="Agrave" unicode="À" d="M105 20q-5 -14 -16 -22t-22 -8q-17 0 -29.5 11t-12.5 29q0 3 0.5 8t1.5 7l195 617q7 23 18.5 38t33.5 15q23 0 34 -15t19 -38l195 -617q1 -2 1.5 -7t0.5 -8q0 -18 -12 -29t-30 -11q-11 0 -23 8t-16 22l-43 139h-253zM171 237h206l-103 339zM227 905l78 -81q5 -6 5 -15 q0 -16 -10 -25.5t-23 -9.5q-10 0 -17 5t-15 13l-81 86q-3 4 -4 8.5t-1 8.5q0 14 10 23.5t21 9.5q14 0 20 -6.5t17 -16.5z"></glyph><glyph glyph-name="Aacute" unicode="Á" d="M105 20q-5 -14 -16 -22t-22 -8q-17 0 -29.5 11t-12.5 29q0 3 0.5 8t1.5 7l195 617q7 23 18.5 38t33.5 15q23 0 34 -15t19 -38l195 -617q1 -2 1.5 -7t0.5 -8q0 -18 -12 -29t-30 -11q-11 0 -23 8t-16 22l-43 139h-253zM171 237h206l-103 339zM247 824l78 81q11 10 17 16.5 t20 6.5q11 0 21 -9.5t10 -23.5q0 -4 -1 -8.5t-4 -8.5l-81 -86q-9 -8 -15.5 -13t-16.5 -5q-14 0 -23.5 9.5t-9.5 25.5q0 9 5 15z"></glyph><glyph glyph-name="Acircumflex" unicode="Â" d="M105 20q-5 -14 -16 -22t-22 -8q-17 0 -29.5 11t-12.5 29q0 3 0.5 8t1.5 7l195 617q7 23 18.5 38t33.5 15q23 0 34 -15t19 -38l195 -617q1 -2 1.5 -7t0.5 -8q0 -18 -12 -29t-30 -11q-11 0 -23 8t-16 22l-43 139h-253zM171 237h206l-103 339zM274 836l-75 -61 q-2 -3 -8 -4.5t-11 -1.5q-10 0 -17.5 8t-7.5 18q0 8 5 15.5t13 14.5l79 67q5 3 10 5.5t12 2.5t12 -2.5t10 -5.5l79 -67q8 -7 13 -14.5t5 -15.5q0 -10 -7.5 -18t-18.5 -8q-4 0 -10 1.5t-8 4.5z"></glyph><glyph glyph-name="Atilde" unicode="Ã" d="M105 20q-5 -14 -16 -22t-22 -8q-17 0 -29.5 11t-12.5 29q0 3 0.5 8t1.5 7l195 617q7 23 18.5 38t33.5 15q23 0 34 -15t19 -38l195 -617q1 -2 1.5 -7t0.5 -8q0 -18 -12 -29t-30 -11q-11 0 -23 8t-16 22l-43 139h-253zM171 237h206l-103 339zM412 850q0 -13 -7.5 -24 t-19.5 -19t-26.5 -12.5t-28.5 -5.5q-16 0 -29.5 4.5t-25.5 10.5t-23 11t-22 6q-14 0 -22.5 -4t-15 -9.5t-12.5 -9.5t-14 -4q-11 0 -19.5 7.5t-10.5 19.5q0 28 25 46.5t57 18.5q16 0 29 -4.5t25 -10.5t23 -11t23 -6q14 0 22.5 4t14.5 9t12 9.5t15 5.5q12 0 21 -9t9 -23z"></glyph><glyph glyph-name="Adieresis" unicode="Ä" d="M105 20q-5 -14 -16 -22t-22 -8q-17 0 -29.5 11t-12.5 29q0 3 0.5 8t1.5 7l195 617q7 23 18.5 38t33.5 15q23 0 34 -15t19 -38l195 -617q1 -2 1.5 -7t0.5 -8q0 -18 -12 -29t-30 -11q-11 0 -23 8t-16 22l-43 139h-253zM171 237h206l-103 339zM406 839q0 -20 -13.5 -34.5 t-33.5 -14.5t-34 14.5t-14 34.5q0 19 14 33t34 14t33.5 -13.5t13.5 -33.5zM237 839q0 -20 -14 -34.5t-34 -14.5t-33 14.5t-13 34.5q0 19 13 33t33 14t34 -13.5t14 -33.5z"></glyph><glyph glyph-name="Aring" unicode="Å" d="M385 725q0 -29 -13.5 -53t-35.5 -39l186 -588q1 -2 1.5 -7t0.5 -8q0 -18 -12 -29t-30 -11q-11 0 -23 8t-16 22l-43 139h-253l-42 -139q-5 -14 -16 -22t-22 -8q-17 0 -29.5 11t-12.5 29q0 3 0.5 8t1.5 7l186 588q-23 15 -36 39t-13 53q0 23 8.5 43t23.5 35t35.5 23.5 t43.5 8.5t43 -8.5t35 -23.5t23.5 -35t8.5 -43zM274 576l-103 -339h206zM335 725q0 25 -17.5 43t-42.5 18t-42.5 -18t-17.5 -43t17.5 -42.5t42.5 -17.5t42.5 17t17.5 43z"></glyph><glyph glyph-name="AE" unicode="Æ" d="M414 0q-25 0 -44 10t-19 37v112h-204l-42 -139q-4 -14 -15.5 -22t-22.5 -8q-18 0 -30 11t-12 29q0 3 0.5 8t1.5 7l193 607q7 23 19 38t33 15h367q17 0 28.5 -11.5t11.5 -28.5t-11.5 -27.5t-28.5 -10.5h-208v-234h189q15 0 27 -11t12 -28t-11 -28t-28 -11h-189v-237h218 q16 0 28 -11t12 -26q0 -17 -11.5 -29t-28.5 -12h-235zM351 627h-50q-13 0 -13 -10l-117 -380h180v390z"></glyph><glyph glyph-name="Ccedilla" unicode="Ç" d="M366 -128q0 -18 -8.5 -35.5t-25.5 -29.5t-43.5 -17.5t-61.5 -0.5q-23 3 -40 16.5t-8 30.5q7 13 19 10t34 -8q35 -7 52 8.5t17 32.5q0 18 -15.5 26t-44.5 10q-23 2 -31.5 8t-5.5 24l9 49q-87 17 -127.5 83t-40.5 167v214q0 58 13.5 105t41.5 80.5t70 51.5t100 18 q34 0 66 -7t56.5 -18.5t39.5 -27t15 -33.5q0 -14 -10 -24.5t-26 -10.5q-11 0 -17.5 4.5t-18.5 12.5q-44 31 -100 31q-42 0 -71 -12.5t-46.5 -36.5t-25 -57.5t-7.5 -75.5v-214q0 -42 7.5 -75.5t25 -57.5t46.5 -36.5t71 -12.5q56 0 100 31q13 8 19 12.5t17 4.5q16 0 26 -10.5 t10 -24.5q0 -18 -15 -33.5t-39.5 -27t-56.5 -18.5t-66 -7h-9l-5 -31q62 -1 86 -25t24 -63z"></glyph><glyph glyph-name="Egrave" unicode="È" d="M441 41q0 -17 -11.5 -29t-28.5 -12h-265q-25 0 -44 10t-19 37v611q0 17 13.5 32t33.5 15h271q17 0 28.5 -11.5t11.5 -28.5t-11.5 -27.5t-28.5 -10.5h-238v-234h219q15 0 27 -11t12 -28t-11 -28t-28 -11h-219v-237h248q16 0 28 -11t12 -26zM229 905l78 -81q5 -6 5 -15 q0 -16 -10 -25.5t-23 -9.5q-10 0 -17 5t-15 13l-81 86q-3 4 -4 8.5t-1 8.5q0 14 10 23.5t21 9.5q14 0 20 -6.5t17 -16.5z"></glyph><glyph glyph-name="Eacute" unicode="É" d="M441 41q0 -17 -11.5 -29t-28.5 -12h-265q-25 0 -44 10t-19 37v611q0 17 13.5 32t33.5 15h271q17 0 28.5 -11.5t11.5 -28.5t-11.5 -27.5t-28.5 -10.5h-238v-234h219q15 0 27 -11t12 -28t-11 -28t-28 -11h-219v-237h248q16 0 28 -11t12 -26zM207 824l78 81q11 10 17 16.5 t20 6.5q11 0 21 -9.5t10 -23.5q0 -4 -1 -8.5t-4 -8.5l-81 -86q-9 -8 -15.5 -13t-16.5 -5q-14 0 -23.5 9.5t-9.5 25.5q0 9 5 15z"></glyph><glyph glyph-name="Ecircumflex" unicode="Ê" d="M441 41q0 -17 -11.5 -29t-28.5 -12h-265q-25 0 -44 10t-19 37v611q0 17 13.5 32t33.5 15h271q17 0 28.5 -11.5t11.5 -28.5t-11.5 -27.5t-28.5 -10.5h-238v-234h219q15 0 27 -11t12 -28t-11 -28t-28 -11h-219v-237h248q16 0 28 -11t12 -26zM261 836l-75 -61q-2 -3 -8 -4.5 t-11 -1.5q-10 0 -17.5 8t-7.5 18q0 8 5 15.5t13 14.5l79 67q5 3 10 5.5t12 2.5t12 -2.5t10 -5.5l79 -67q8 -7 13 -14.5t5 -15.5q0 -10 -7.5 -18t-18.5 -8q-4 0 -10 1.5t-8 4.5z"></glyph><glyph glyph-name="Edieresis" unicode="Ë" d="M441 41q0 -17 -11.5 -29t-28.5 -12h-265q-25 0 -44 10t-19 37v611q0 17 13.5 32t33.5 15h271q17 0 28.5 -11.5t11.5 -28.5t-11.5 -27.5t-28.5 -10.5h-238v-234h219q15 0 27 -11t12 -28t-11 -28t-28 -11h-219v-237h248q16 0 28 -11t12 -26zM392 839q0 -20 -13.5 -34.5 t-33.5 -14.5t-34 14.5t-14 34.5q0 19 14 33t34 14t33.5 -13.5t13.5 -33.5zM223 839q0 -20 -14 -34.5t-34 -14.5t-33 14.5t-13 34.5q0 19 13 33t33 14t34 -13.5t14 -33.5z"></glyph><glyph glyph-name="Igrave" unicode="Ì" d="M73 30v645q0 16 11.5 28t28.5 12t28.5 -12t11.5 -28v-645q0 -16 -11.5 -28t-28.5 -12t-28.5 12t-11.5 28zM79 905l78 -81q5 -6 5 -15q0 -16 -10 -25.5t-23 -9.5q-10 0 -17 5t-15 13l-81 86q-3 4 -4 8.5t-1 8.5q0 14 10 23.5t21 9.5q14 0 20 -6.5t17 -16.5z"></glyph><glyph glyph-name="Iacute" unicode="Í" d="M73 30v645q0 16 11.5 28t28.5 12t28.5 -12t11.5 -28v-645q0 -16 -11.5 -28t-28.5 -12t-28.5 12t-11.5 28zM70 824l78 81q11 10 17 16.5t20 6.5q11 0 21 -9.5t10 -23.5q0 -4 -1 -8.5t-4 -8.5l-81 -86q-9 -8 -15.5 -13t-16.5 -5q-14 0 -23.5 9.5t-9.5 25.5q0 9 5 15z"></glyph><glyph glyph-name="Icircumflex" unicode="Î" d="M73 30v645q0 16 11.5 28t28.5 12t28.5 -12t11.5 -28v-645q0 -16 -11.5 -28t-28.5 -12t-28.5 12t-11.5 28zM114 836l-75 -61q-2 -3 -8 -4.5t-11 -1.5q-10 0 -17.5 8t-7.5 18q0 8 5 15.5t13 14.5l79 67q5 3 10 5.5t12 2.5t12 -2.5t10 -5.5l79 -67q8 -7 13 -14.5t5 -15.5 q0 -10 -7.5 -18t-18.5 -8q-4 0 -10 1.5t-8 4.5z"></glyph><glyph glyph-name="Idieresis" unicode="Ï" d="M73 30v645q0 16 11.5 28t28.5 12t28.5 -12t11.5 -28v-645q0 -16 -11.5 -28t-28.5 -12t-28.5 12t-11.5 28zM245 839q0 -20 -13.5 -34.5t-33.5 -14.5t-34 14.5t-14 34.5q0 19 14 33t34 14t33.5 -13.5t13.5 -33.5zM76 839q0 -20 -14 -34.5t-34 -14.5t-33 14.5t-13 34.5 q0 19 13 33t33 14t34 -13.5t14 -33.5z"></glyph><glyph glyph-name="Eth" unicode="Ð" d="M528 264q0 -51 -14 -99t-46 -84.5t-84.5 -58.5t-129.5 -22h-113q-20 0 -34 14t-14 34v269h-39q-16 0 -26.5 10.5t-10.5 25.5t10.5 26t26.5 11h39v268q0 20 14 34t34 14h113q77 0 129 -21t84.5 -56t46.5 -81.5t14 -96.5v-187zM339 353q0 -15 -10.5 -25.5t-25.5 -10.5h-130 v-239h98q50 0 83.5 14.5t54.5 40t30 59t9 72.5v187q0 37 -9.5 69.5t-30.5 56.5t-54.5 37.5t-82.5 13.5h-98v-238h130q15 0 25.5 -11t10.5 -26z"></glyph><glyph glyph-name="Ntilde" unicode="Ñ" d="M482 -10q-12 0 -23.5 6t-17.5 17l-288 533v-515q0 -17 -12 -29t-29 -12t-28 12t-11 29v640q0 19 12 31.5t31 12.5q13 0 24.5 -6.5t17.5 -17.5l288 -532v515q0 17 12 29t29 12t28 -12t11 -29v-640q0 -18 -12 -31t-32 -13zM438 850q0 -13 -7.5 -24t-19.5 -19t-26.5 -12.5 t-28.5 -5.5q-16 0 -29.5 4.5t-25.5 10.5t-23 11t-22 6q-14 0 -22.5 -4t-15 -9.5t-12.5 -9.5t-14 -4q-11 0 -19.5 7.5t-10.5 19.5q0 28 25 46.5t57 18.5q16 0 29 -4.5t25 -10.5t23 -11t23 -6q14 0 22.5 4t14.5 9t12 9.5t15 5.5q12 0 21 -9t9 -23z"></glyph><glyph glyph-name="Ograve" unicode="Ò" d="M275 -10q-57 0 -100.5 20t-72 54.5t-43 81.5t-14.5 100v214q0 52 12.5 98.5t40.5 81t71.5 55t105.5 20.5t105.5 -20.5t71.5 -55t40.5 -81t12.5 -98.5v-214q0 -53 -14.5 -100t-43 -81.5t-72 -54.5t-100.5 -20zM275 637q-41 0 -69.5 -12.5t-46.5 -36t-26 -56t-8 -72.5v-214 q0 -79 36.5 -128.5t113.5 -49.5t113.5 49.5t36.5 128.5v214q0 40 -8 72.5t-26 56t-46.5 36t-69.5 12.5zM247 905l78 -81q5 -6 5 -15q0 -16 -10 -25.5t-23 -9.5q-10 0 -17 5t-15 13l-81 86q-3 4 -4 8.5t-1 8.5q0 14 10 23.5t21 9.5q14 0 20 -6.5t17 -16.5z"></glyph><glyph glyph-name="Oacute" unicode="Ó" d="M275 -10q-57 0 -100.5 20t-72 54.5t-43 81.5t-14.5 100v214q0 52 12.5 98.5t40.5 81t71.5 55t105.5 20.5t105.5 -20.5t71.5 -55t40.5 -81t12.5 -98.5v-214q0 -53 -14.5 -100t-43 -81.5t-72 -54.5t-100.5 -20zM275 637q-41 0 -69.5 -12.5t-46.5 -36t-26 -56t-8 -72.5v-214 q0 -79 36.5 -128.5t113.5 -49.5t113.5 49.5t36.5 128.5v214q0 40 -8 72.5t-26 56t-46.5 36t-69.5 12.5zM234 824l78 81q11 10 17 16.5t20 6.5q11 0 21 -9.5t10 -23.5q0 -4 -1 -8.5t-4 -8.5l-81 -86q-9 -8 -15.5 -13t-16.5 -5q-14 0 -23.5 9.5t-9.5 25.5q0 9 5 15z"></glyph><glyph glyph-name="Ocircumflex" unicode="Ô" d="M275 -10q-57 0 -100.5 20t-72 54.5t-43 81.5t-14.5 100v214q0 52 12.5 98.5t40.5 81t71.5 55t105.5 20.5t105.5 -20.5t71.5 -55t40.5 -81t12.5 -98.5v-214q0 -53 -14.5 -100t-43 -81.5t-72 -54.5t-100.5 -20zM275 637q-41 0 -69.5 -12.5t-46.5 -36t-26 -56t-8 -72.5v-214 q0 -79 36.5 -128.5t113.5 -49.5t113.5 49.5t36.5 128.5v214q0 40 -8 72.5t-26 56t-46.5 36t-69.5 12.5zM275 836l-75 -61q-2 -3 -8 -4.5t-11 -1.5q-10 0 -17.5 8t-7.5 18q0 8 5 15.5t13 14.5l79 67q5 3 10 5.5t12 2.5t12 -2.5t10 -5.5l79 -67q8 -7 13 -14.5t5 -15.5 q0 -10 -7.5 -18t-18.5 -8q-4 0 -10 1.5t-8 4.5z"></glyph><glyph glyph-name="Otilde" unicode="Õ" d="M275 -10q-57 0 -100.5 20t-72 54.5t-43 81.5t-14.5 100v214q0 52 12.5 98.5t40.5 81t71.5 55t105.5 20.5t105.5 -20.5t71.5 -55t40.5 -81t12.5 -98.5v-214q0 -53 -14.5 -100t-43 -81.5t-72 -54.5t-100.5 -20zM275 637q-41 0 -69.5 -12.5t-46.5 -36t-26 -56t-8 -72.5v-214 q0 -79 36.5 -128.5t113.5 -49.5t113.5 49.5t36.5 128.5v214q0 40 -8 72.5t-26 56t-46.5 36t-69.5 12.5zM413 850q0 -13 -7.5 -24t-19.5 -19t-26.5 -12.5t-28.5 -5.5q-16 0 -29.5 4.5t-25.5 10.5t-23 11t-22 6q-14 0 -22.5 -4t-15 -9.5t-12.5 -9.5t-14 -4q-11 0 -19.5 7.5 t-10.5 19.5q0 28 25 46.5t57 18.5q16 0 29 -4.5t25 -10.5t23 -11t23 -6q14 0 22.5 4t14.5 9t12 9.5t15 5.5q12 0 21 -9t9 -23z"></glyph><glyph glyph-name="Odieresis" unicode="Ö" d="M275 -10q-57 0 -100.5 20t-72 54.5t-43 81.5t-14.5 100v214q0 52 12.5 98.5t40.5 81t71.5 55t105.5 20.5t105.5 -20.5t71.5 -55t40.5 -81t12.5 -98.5v-214q0 -53 -14.5 -100t-43 -81.5t-72 -54.5t-100.5 -20zM275 637q-41 0 -69.5 -12.5t-46.5 -36t-26 -56t-8 -72.5v-214 q0 -79 36.5 -128.5t113.5 -49.5t113.5 49.5t36.5 128.5v214q0 40 -8 72.5t-26 56t-46.5 36t-69.5 12.5zM407 839q0 -20 -13.5 -34.5t-33.5 -14.5t-34 14.5t-14 34.5q0 19 14 33t34 14t33.5 -13.5t13.5 -33.5zM238 839q0 -20 -14 -34.5t-34 -14.5t-33 14.5t-13 34.5 q0 19 13 33t33 14t34 -13.5t14 -33.5z"></glyph><glyph glyph-name="multiply" unicode="×" d="M425 474l-120 -120l120 -120q12 -12 12 -28t-12 -27q-11 -12 -27.5 -11.5t-27.5 11.5l-120 120l-120 -120q-11 -11 -27.5 -11.5t-27.5 11.5q-12 11 -12 27t12 28l120 120l-120 120q-11 11 -11.5 27.5t11.5 27.5q11 12 27 12t28 -12l120 -120l120 120q12 12 28 12t27 -12 q12 -11 11.5 -27.5t-11.5 -27.5z"></glyph><glyph glyph-name="Oslash" unicode="Ø" d="M25 39l49 70q-29 61 -29 137v214q0 52 12.5 98.5t40.5 81t71.5 55t105.5 20.5q60 0 102.5 -19t70.5 -52l36 51q6 9 17 11t20 -4q8 -6 10.5 -16.5t-4.5 -19.5l-49 -70q27 -58 27 -136v-214q0 -53 -14.5 -100t-43 -81.5t-72 -54.5t-100.5 -20t-99.5 19t-71.5 53l-36 -52 q-6 -9 -17 -11t-20 4q-8 6 -10.5 16.5t4.5 19.5zM275 637q-41 0 -69.5 -12.5t-46.5 -36t-26 -56t-8 -72.5v-214q0 -15 1 -29.5t4 -27.5l270 386q-17 29 -47.5 45.5t-77.5 16.5zM425 460q0 14 -1.5 27.5t-3.5 26.5l-268 -384q18 -29 48.5 -45.5t74.5 -16.5q77 0 113.5 49.5 t36.5 128.5v214z"></glyph><glyph glyph-name="Ugrave" unicode="Ù" d="M507 230q0 -52 -15 -96t-43.5 -76t-69.5 -50t-93 -18q-53 0 -94.5 18t-69.5 50t-42.5 76t-14.5 96v443q0 18 12 30t29 12q16 0 27.5 -12.5t11.5 -29.5v-443q0 -72 34.5 -117t106.5 -45t106 46t34 116v443q0 17 11 29.5t28 12.5q18 0 30 -12.5t12 -29.5v-443zM244 905 l78 -81q5 -6 5 -15q0 -16 -10 -25.5t-23 -9.5q-10 0 -17 5t-15 13l-81 86q-3 4 -4 8.5t-1 8.5q0 14 10 23.5t21 9.5q14 0 20 -6.5t17 -16.5z"></glyph><glyph glyph-name="Uacute" unicode="Ú" d="M507 230q0 -52 -15 -96t-43.5 -76t-69.5 -50t-93 -18q-53 0 -94.5 18t-69.5 50t-42.5 76t-14.5 96v443q0 18 12 30t29 12q16 0 27.5 -12.5t11.5 -29.5v-443q0 -72 34.5 -117t106.5 -45t106 46t34 116v443q0 17 11 29.5t28 12.5q18 0 30 -12.5t12 -29.5v-443zM251 824 l78 81q11 10 17 16.5t20 6.5q11 0 21 -9.5t10 -23.5q0 -4 -1 -8.5t-4 -8.5l-81 -86q-9 -8 -15.5 -13t-16.5 -5q-14 0 -23.5 9.5t-9.5 25.5q0 9 5 15z"></glyph><glyph glyph-name="Ucircumflex" unicode="Û" d="M507 230q0 -52 -15 -96t-43.5 -76t-69.5 -50t-93 -18q-53 0 -94.5 18t-69.5 50t-42.5 76t-14.5 96v443q0 18 12 30t29 12q16 0 27.5 -12.5t11.5 -29.5v-443q0 -72 34.5 -117t106.5 -45t106 46t34 116v443q0 17 11 29.5t28 12.5q18 0 30 -12.5t12 -29.5v-443zM286 836 l-75 -61q-2 -3 -8 -4.5t-11 -1.5q-10 0 -17.5 8t-7.5 18q0 8 5 15.5t13 14.5l79 67q5 3 10 5.5t12 2.5t12 -2.5t10 -5.5l79 -67q8 -7 13 -14.5t5 -15.5q0 -10 -7.5 -18t-18.5 -8q-4 0 -10 1.5t-8 4.5z"></glyph><glyph glyph-name="Udieresis" unicode="Ü" d="M507 230q0 -52 -15 -96t-43.5 -76t-69.5 -50t-93 -18q-53 0 -94.5 18t-69.5 50t-42.5 76t-14.5 96v443q0 18 12 30t29 12q16 0 27.5 -12.5t11.5 -29.5v-443q0 -72 34.5 -117t106.5 -45t106 46t34 116v443q0 17 11 29.5t28 12.5q18 0 30 -12.5t12 -29.5v-443zM417 839 q0 -20 -13.5 -34.5t-33.5 -14.5t-34 14.5t-14 34.5q0 19 14 33t34 14t33.5 -13.5t13.5 -33.5zM248 839q0 -20 -14 -34.5t-34 -14.5t-33 14.5t-13 34.5q0 19 13 33t33 14t34 -13.5t14 -33.5z"></glyph><glyph glyph-name="Yacute" unicode="Ý" d="M238 -10q-17 0 -29 12.5t-12 29.5v245l-178 378q-4 10 -4 19q0 17 12.5 29t28.5 12q9 0 17.5 -4t13.5 -12l151 -329l151 329q5 8 13.5 12t17.5 4q16 0 28.5 -12t12.5 -29q0 -9 -4 -19l-178 -380v-243q0 -17 -12 -29.5t-29 -12.5zM168 824l78 81q11 10 17 16.5t20 6.5 q11 0 21 -9.5t10 -23.5q0 -4 -1 -8.5t-4 -8.5l-81 -86q-9 -8 -15.5 -13t-16.5 -5q-14 0 -23.5 9.5t-9.5 25.5q0 9 5 15z"></glyph><glyph glyph-name="Thorn" unicode="Þ" d="M73 30v645q0 16 11.5 28t28.5 12t28.5 -12t11.5 -28v-89h115q62 0 105 -18.5t69.5 -50t38.5 -72t12 -84.5q0 -107 -61 -164t-164 -57h-115v-110q0 -16 -11.5 -28t-28.5 -12t-28.5 12t-11.5 28zM153 508v-290h115q72 0 108.5 35t36.5 109q0 27 -6 53t-22 47t-44.5 33.5 t-72.5 12.5h-115z"></glyph><glyph glyph-name="germandbls" unicode="ß" d="M513 163q0 -78 -45.5 -122.5t-132.5 -44.5q-9 0 -30 1t-42.5 5.5t-38.5 13.5t-17 26q0 12 8.5 24t31.5 12q17 0 40.5 -5.5t46.5 -5.5q17 0 35 5t32.5 16.5t24 29.5t9.5 43q0 29 -11.5 51t-29 38.5t-38.5 27.5t-40 17q-15 5 -31 10t-30 13t-23 20t-9 31q0 25 11.5 38.5 t25.5 21.5t34 15.5t38 19.5t31 31.5t13 49.5q0 50 -31.5 76t-81.5 26q-59 0 -85.5 -37t-26.5 -113v-523q0 -16 -11 -27.5t-28 -11.5t-28 11.5t-11 27.5v520q0 106 50.5 165.5t145.5 59.5q39 0 72.5 -11t58 -32t38.5 -52t14 -71q0 -54 -24.5 -89t-62.5 -52q-9 -4 -21 -8 t-22 -8.5t-16.5 -10t-4.5 -11.5q3 -9 19 -13.5t45 -15.5q32 -12 59 -28t46.5 -38.5t31 -51t11.5 -64.5z"></glyph><glyph glyph-name="agrave" unicode="à" d="M322 338q0 107 -107 107q-26 0 -42.5 -6t-33.5 -15q-2 -1 -10 -4.5t-16 -3.5q-14 0 -20.5 11t-7.5 22q-1 17 10.5 29.5t32 20.5t46 11.5t51.5 3.5q94 0 134.5 -51t40.5 -151v-220q0 -30 18 -30q2 0 3.5 0.5t4.5 0.5q14 0 21.5 -10.5t7.5 -23.5q0 -19 -14 -26.5t-31 -7.5 q-25 0 -44.5 13.5t-30.5 36.5q-58 -53 -137 -53q-78 0 -115.5 41.5t-37.5 109.5v4q0 148 176 148q53 0 101 -14v57zM220 229q-31 0 -50 -6.5t-29.5 -18t-14.5 -26.5t-4 -32v-4q0 -35 18.5 -57.5t69.5 -22.5q32 0 59 10.5t53 33.5v108q-25 8 -52 11.5t-50 3.5zM213 705 l78 -81q5 -6 5 -15q0 -16 -10 -25.5t-23 -9.5q-10 0 -17 5t-15 13l-81 86q-3 4 -4 8.5t-1 8.5q0 14 10 23.5t21 9.5q14 0 20 -6.5t17 -16.5z"></glyph><glyph glyph-name="aacute" unicode="á" d="M322 338q0 107 -107 107q-26 0 -42.5 -6t-33.5 -15q-2 -1 -10 -4.5t-16 -3.5q-14 0 -20.5 11t-7.5 22q-1 17 10.5 29.5t32 20.5t46 11.5t51.5 3.5q94 0 134.5 -51t40.5 -151v-220q0 -30 18 -30q2 0 3.5 0.5t4.5 0.5q14 0 21.5 -10.5t7.5 -23.5q0 -19 -14 -26.5t-31 -7.5 q-25 0 -44.5 13.5t-30.5 36.5q-58 -53 -137 -53q-78 0 -115.5 41.5t-37.5 109.5v4q0 148 176 148q53 0 101 -14v57zM220 229q-31 0 -50 -6.5t-29.5 -18t-14.5 -26.5t-4 -32v-4q0 -35 18.5 -57.5t69.5 -22.5q32 0 59 10.5t53 33.5v108q-25 8 -52 11.5t-50 3.5zM200 624l78 81 q11 10 17 16.5t20 6.5q11 0 21 -9.5t10 -23.5q0 -4 -1 -8.5t-4 -8.5l-81 -86q-9 -8 -15.5 -13t-16.5 -5q-14 0 -23.5 9.5t-9.5 25.5q0 9 5 15z"></glyph><glyph glyph-name="acircumflex" unicode="â" d="M322 338q0 107 -107 107q-26 0 -42.5 -6t-33.5 -15q-2 -1 -10 -4.5t-16 -3.5q-14 0 -20.5 11t-7.5 22q-1 17 10.5 29.5t32 20.5t46 11.5t51.5 3.5q94 0 134.5 -51t40.5 -151v-220q0 -30 18 -30q2 0 3.5 0.5t4.5 0.5q14 0 21.5 -10.5t7.5 -23.5q0 -19 -14 -26.5t-31 -7.5 q-25 0 -44.5 13.5t-30.5 36.5q-58 -53 -137 -53q-78 0 -115.5 41.5t-37.5 109.5v4q0 148 176 148q53 0 101 -14v57zM220 229q-31 0 -50 -6.5t-29.5 -18t-14.5 -26.5t-4 -32v-4q0 -35 18.5 -57.5t69.5 -22.5q32 0 59 10.5t53 33.5v108q-25 8 -52 11.5t-50 3.5zM241 636 l-75 -61q-2 -3 -8 -4.5t-11 -1.5q-10 0 -17.5 8t-7.5 18q0 8 5 15.5t13 14.5l79 67q5 3 10 5.5t12 2.5t12 -2.5t10 -5.5l79 -67q8 -7 13 -14.5t5 -15.5q0 -10 -7.5 -18t-18.5 -8q-4 0 -10 1.5t-8 4.5z"></glyph><glyph glyph-name="atilde" unicode="ã" d="M322 338q0 107 -107 107q-26 0 -42.5 -6t-33.5 -15q-2 -1 -10 -4.5t-16 -3.5q-14 0 -20.5 11t-7.5 22q-1 17 10.5 29.5t32 20.5t46 11.5t51.5 3.5q94 0 134.5 -51t40.5 -151v-220q0 -30 18 -30q2 0 3.5 0.5t4.5 0.5q14 0 21.5 -10.5t7.5 -23.5q0 -19 -14 -26.5t-31 -7.5 q-25 0 -44.5 13.5t-30.5 36.5q-58 -53 -137 -53q-78 0 -115.5 41.5t-37.5 109.5v4q0 148 176 148q53 0 101 -14v57zM220 229q-31 0 -50 -6.5t-29.5 -18t-14.5 -26.5t-4 -32v-4q0 -35 18.5 -57.5t69.5 -22.5q32 0 59 10.5t53 33.5v108q-25 8 -52 11.5t-50 3.5zM379 650 q0 -13 -7.5 -24t-19.5 -19t-26.5 -12.5t-28.5 -5.5q-16 0 -29.5 4.5t-25.5 10.5t-23 11t-22 6q-14 0 -22.5 -4t-15 -9.5t-12.5 -9.5t-14 -4q-11 0 -19.5 7.5t-10.5 19.5q0 28 25 46.5t57 18.5q16 0 29 -4.5t25 -10.5t23 -11t23 -6q14 0 22.5 4t14.5 9t12 9.5t15 5.5 q12 0 21 -9t9 -23z"></glyph><glyph glyph-name="adieresis" unicode="ä" d="M322 338q0 107 -107 107q-26 0 -42.5 -6t-33.5 -15q-2 -1 -10 -4.5t-16 -3.5q-14 0 -20.5 11t-7.5 22q-1 17 10.5 29.5t32 20.5t46 11.5t51.5 3.5q94 0 134.5 -51t40.5 -151v-220q0 -30 18 -30q2 0 3.5 0.5t4.5 0.5q14 0 21.5 -10.5t7.5 -23.5q0 -19 -14 -26.5t-31 -7.5 q-25 0 -44.5 13.5t-30.5 36.5q-58 -53 -137 -53q-78 0 -115.5 41.5t-37.5 109.5v4q0 148 176 148q53 0 101 -14v57zM220 229q-31 0 -50 -6.5t-29.5 -18t-14.5 -26.5t-4 -32v-4q0 -35 18.5 -57.5t69.5 -22.5q32 0 59 10.5t53 33.5v108q-25 8 -52 11.5t-50 3.5zM372 639 q0 -20 -13.5 -34.5t-33.5 -14.5t-34 14.5t-14 34.5q0 19 14 33t34 14t33.5 -13.5t13.5 -33.5zM203 639q0 -20 -14 -34.5t-34 -14.5t-33 14.5t-13 34.5q0 19 13 33t33 14t34 -13.5t14 -33.5z"></glyph><glyph glyph-name="aring" unicode="å" d="M322 338q0 107 -107 107q-26 0 -42.5 -6t-33.5 -15q-2 -1 -10 -4.5t-16 -3.5q-14 0 -20.5 11t-7.5 22q-1 17 10.5 29.5t32 20.5t46 11.5t51.5 3.5q94 0 134.5 -51t40.5 -151v-220q0 -30 18 -30q2 0 3.5 0.5t4.5 0.5q14 0 21.5 -10.5t7.5 -23.5q0 -19 -14 -26.5t-31 -7.5 q-25 0 -44.5 13.5t-30.5 36.5q-58 -53 -137 -53q-78 0 -115.5 41.5t-37.5 109.5v4q0 148 176 148q53 0 101 -14v57zM220 229q-31 0 -50 -6.5t-29.5 -18t-14.5 -26.5t-4 -32v-4q0 -35 18.5 -57.5t69.5 -22.5q32 0 59 10.5t53 33.5v108q-25 8 -52 11.5t-50 3.5zM341 644 q0 -42 -28.5 -70.5t-70.5 -28.5t-71 28.5t-29 70.5t29 70.5t71 28.5t70.5 -28.5t28.5 -70.5zM296 644q0 23 -15.5 39t-38.5 16t-38.5 -16t-15.5 -39t15.5 -38.5t38.5 -15.5t38.5 15.5t15.5 38.5z"></glyph><glyph glyph-name="ae" unicode="æ" d="M502 203q-23 0 -49.5 2t-52.5 7v-59q0 -42 27.5 -67t81.5 -25q32 0 55 8t49 20q2 1 5.5 2t8.5 1q15 0 25 -10.5t10 -24.5q0 -18 -18 -30.5t-43 -20t-52 -11t-46 -3.5q-50 0 -84 19t-54 52q-70 -71 -167 -71q-78 0 -115.5 41.5t-37.5 109.5v4q0 148 176 148q53 0 101 -14 v57q0 107 -107 107q-26 0 -42.5 -6t-33.5 -15q-2 -1 -10 -4.5t-16 -3.5q-14 0 -20.5 11t-7.5 22q-1 17 10.5 29.5t32 20.5t46 11.5t51.5 3.5q53 0 86 -20.5t50 -61.5q18 37 54.5 59.5t93.5 22.5q80 0 121 -44t41 -119q0 -69 -39.5 -108.5t-129.5 -39.5zM594 351 q0 49 -23.5 70.5t-67.5 21.5q-49 0 -76 -24.5t-27 -66.5v-76q28 -3 59 -5t46 -2q28 0 45.5 7t27 18.5t13 26.5t3.5 30zM322 106v108q-25 8 -52 11.5t-50 3.5q-31 0 -50 -6.5t-29.5 -18t-14.5 -26.5t-4 -32v-4q0 -35 18.5 -57.5t69.5 -22.5q32 0 59 10.5t53 33.5z"></glyph><glyph glyph-name="ccedilla" unicode="ç" d="M334 -128q0 -18 -8.5 -35.5t-25.5 -29.5t-43.5 -17.5t-61.5 -0.5q-23 3 -40 16.5t-8 30.5q7 13 19 10t34 -8q35 -7 52 8.5t17 32.5q0 18 -15.5 26t-44.5 10q-23 2 -31.5 8t-5.5 24l8 49q-70 12 -102.5 62.5t-32.5 117.5v151q0 39 10.5 72.5t32 58t55.5 39t81 14.5 q18 0 41.5 -3t45.5 -10t37 -18.5t15 -29.5q0 -14 -10 -24t-24 -10q-7 0 -16 3q-18 9 -36.5 16t-44.5 7q-59 0 -84 -30t-25 -85v-151q0 -55 25 -85t84 -30q26 0 44.5 7t36.5 16q9 3 16 3q14 0 24 -10t10 -24q0 -17 -14 -28.5t-34.5 -18.5t-44 -10.5t-41.5 -3.5l-5 -32 q62 -1 86 -25t24 -63z"></glyph><glyph glyph-name="egrave" unicode="è" d="M232 61q32 0 55 8t49 20q2 1 5.5 2t8.5 1q15 0 25 -10.5t10 -24.5q0 -18 -17.5 -30.5t-43 -20t-53.5 -11t-48 -3.5q-42 0 -75.5 12.5t-56 35t-34.5 53t-12 65.5v187q0 36 12 67t35 53.5t57 35.5t79 13q84 0 125 -44t41 -119q0 -69 -39.5 -108.5t-129.5 -39.5 q-23 0 -49.5 2t-52.5 7v-59q0 -42 27.5 -67t81.5 -25zM317 351q0 49 -23.5 70.5t-67.5 21.5q-49 0 -76 -24.5t-27 -66.5v-76q28 -4 59 -5.5t46 -1.5q29 0 46 7t27 18.5t13 26.5t3 30zM170 705l78 -81q5 -6 5 -15q0 -16 -10 -25.5t-23 -9.5q-10 0 -17 5t-15 13l-81 86 q-3 4 -4 8.5t-1 8.5q0 14 10 23.5t21 9.5q14 0 20 -6.5t17 -16.5z"></glyph><glyph glyph-name="eacute" unicode="é" d="M232 61q32 0 55 8t49 20q2 1 5.5 2t8.5 1q15 0 25 -10.5t10 -24.5q0 -18 -17.5 -30.5t-43 -20t-53.5 -11t-48 -3.5q-42 0 -75.5 12.5t-56 35t-34.5 53t-12 65.5v187q0 36 12 67t35 53.5t57 35.5t79 13q84 0 125 -44t41 -119q0 -69 -39.5 -108.5t-129.5 -39.5 q-23 0 -49.5 2t-52.5 7v-59q0 -42 27.5 -67t81.5 -25zM317 351q0 49 -23.5 70.5t-67.5 21.5q-49 0 -76 -24.5t-27 -66.5v-76q28 -4 59 -5.5t46 -1.5q29 0 46 7t27 18.5t13 26.5t3 30zM184 624l78 81q11 10 17 16.5t20 6.5q11 0 21 -9.5t10 -23.5q0 -4 -1 -8.5t-4 -8.5 l-81 -86q-9 -8 -15.5 -13t-16.5 -5q-14 0 -23.5 9.5t-9.5 25.5q0 9 5 15z"></glyph><glyph glyph-name="ecircumflex" unicode="ê" d="M232 61q32 0 55 8t49 20q2 1 5.5 2t8.5 1q15 0 25 -10.5t10 -24.5q0 -18 -17.5 -30.5t-43 -20t-53.5 -11t-48 -3.5q-42 0 -75.5 12.5t-56 35t-34.5 53t-12 65.5v187q0 36 12 67t35 53.5t57 35.5t79 13q84 0 125 -44t41 -119q0 -69 -39.5 -108.5t-129.5 -39.5 q-23 0 -49.5 2t-52.5 7v-59q0 -42 27.5 -67t81.5 -25zM317 351q0 49 -23.5 70.5t-67.5 21.5q-49 0 -76 -24.5t-27 -66.5v-76q28 -4 59 -5.5t46 -1.5q29 0 46 7t27 18.5t13 26.5t3 30zM217 636l-75 -61q-2 -3 -8 -4.5t-11 -1.5q-10 0 -17.5 8t-7.5 18q0 8 5 15.5t13 14.5 l79 67q5 3 10 5.5t12 2.5t12 -2.5t10 -5.5l79 -67q8 -7 13 -14.5t5 -15.5q0 -10 -7.5 -18t-18.5 -8q-4 0 -10 1.5t-8 4.5z"></glyph><glyph glyph-name="edieresis" unicode="ë" d="M232 61q32 0 55 8t49 20q2 1 5.5 2t8.5 1q15 0 25 -10.5t10 -24.5q0 -18 -17.5 -30.5t-43 -20t-53.5 -11t-48 -3.5q-42 0 -75.5 12.5t-56 35t-34.5 53t-12 65.5v187q0 36 12 67t35 53.5t57 35.5t79 13q84 0 125 -44t41 -119q0 -69 -39.5 -108.5t-129.5 -39.5 q-23 0 -49.5 2t-52.5 7v-59q0 -42 27.5 -67t81.5 -25zM317 351q0 49 -23.5 70.5t-67.5 21.5q-49 0 -76 -24.5t-27 -66.5v-76q28 -4 59 -5.5t46 -1.5q29 0 46 7t27 18.5t13 26.5t3 30zM349 639q0 -20 -13.5 -34.5t-33.5 -14.5t-34 14.5t-14 34.5q0 19 14 33t34 14t33.5 -13.5 t13.5 -33.5zM180 639q0 -20 -14 -34.5t-34 -14.5t-33 14.5t-13 34.5q0 19 13 33t33 14t34 -13.5t14 -33.5z"></glyph><glyph glyph-name="igrave" unicode="ì" d="M161 31q0 -17 -11 -28t-28 -11t-28 11t-11 28v441q0 16 11 27.5t28 11.5t28 -11.5t11 -27.5v-441zM83 705l78 -81q5 -6 5 -15q0 -16 -10 -25.5t-23 -9.5q-10 0 -17 5t-15 13l-81 86q-3 4 -4 8.5t-1 8.5q0 14 10 23.5t21 9.5q14 0 20 -6.5t17 -16.5z"></glyph><glyph glyph-name="iacute" unicode="í" d="M161 31q0 -17 -11 -28t-28 -11t-28 11t-11 28v441q0 16 11 27.5t28 11.5t28 -11.5t11 -27.5v-441zM87 624l78 81q11 10 17 16.5t20 6.5q11 0 21 -9.5t10 -23.5q0 -4 -1 -8.5t-4 -8.5l-81 -86q-9 -8 -15.5 -13t-16.5 -5q-14 0 -23.5 9.5t-9.5 25.5q0 9 5 15z"></glyph><glyph glyph-name="icircumflex" unicode="î" d="M161 31q0 -17 -11 -28t-28 -11t-28 11t-11 28v441q0 16 11 27.5t28 11.5t28 -11.5t11 -27.5v-441zM123 636l-75 -61q-2 -3 -8 -4.5t-11 -1.5q-10 0 -17.5 8t-7.5 18q0 8 5 15.5t13 14.5l79 67q5 3 10 5.5t12 2.5t12 -2.5t10 -5.5l79 -67q8 -7 13 -14.5t5 -15.5 q0 -10 -7.5 -18t-18.5 -8q-4 0 -10 1.5t-8 4.5z"></glyph><glyph glyph-name="idieresis" unicode="ï" d="M161 31q0 -17 -11 -28t-28 -11t-28 11t-11 28v441q0 16 11 27.5t28 11.5t28 -11.5t11 -27.5v-441zM254 639q0 -20 -13.5 -34.5t-33.5 -14.5t-34 14.5t-14 34.5q0 19 14 33t34 14t33.5 -13.5t13.5 -33.5zM85 639q0 -20 -14 -34.5t-34 -14.5t-33 14.5t-13 34.5q0 19 13 33 t33 14t34 -13.5t14 -33.5z"></glyph><glyph glyph-name="eth" unicode="ð" d="M493 647q1 0 1 -1q2 -3 1 -7q-2 -17 -15 -24l-60 -32q19 -47 29 -111t10 -147q0 -101 -14 -166t-40 -102.5t-63 -52t-84 -14.5q-57 0 -98 17t-67.5 46.5t-39 70t-12.5 87.5t12 88t35.5 72t58 48.5t80.5 17.5q14 0 32.5 -2t39 -7.5t40.5 -14.5t38 -23q0 54 -5.5 92.5 t-15.5 65.5l-65 -35q-8 -5 -14 -6t-9 -1q-11 0 -20 10t-7 23q2 17 15 24l71 38q-23 25 -49 32t-52 10q-10 1 -20 6t-8 28q2 17 12.5 24.5t42.5 7.5q87 0 139 -73l53 29q11 6 23 6q9 0 14 -4t8 -8q2 -6 3 -12zM379 281v28q-12 13 -29.5 23t-37.5 17.5t-40.5 11.5t-37.5 4 q-54 0 -84.5 -39.5t-30.5 -109.5q0 -32 7.5 -60t23.5 -48.5t41.5 -32t61.5 -11.5q72 0 99 51.5t27 165.5z"></glyph><glyph glyph-name="ntilde" unicode="ñ" d="M155 371v-340q0 -16 -9.5 -27t-29.5 -11t-29.5 11t-9.5 27v340q0 21 -1.5 32t-4 18t-6 10.5t-6.5 9.5q-2 3 -4.5 7.5t-2.5 12.5q0 15 10.5 25t26.5 10q14 0 24 -8t18 -21q33 23 70 34t73 11q80 0 119.5 -52t39.5 -137v-292q0 -16 -10 -27t-29 -11t-29 11t-10 27v292 q0 57 -23.5 88t-68.5 31q-29 0 -57 -11t-54 -31q3 -16 3 -29zM381 650q0 -13 -7.5 -24t-19.5 -19t-26.5 -12.5t-28.5 -5.5q-16 0 -29.5 4.5t-25.5 10.5t-23 11t-22 6q-14 0 -22.5 -4t-15 -9.5t-12.5 -9.5t-14 -4q-11 0 -19.5 7.5t-10.5 19.5q0 28 25 46.5t57 18.5 q16 0 29 -4.5t25 -10.5t23 -11t23 -6q14 0 22.5 4t14.5 9t12 9.5t15 5.5q12 0 21 -9t9 -23z"></glyph><glyph glyph-name="ograve" unicode="ò" d="M232 -8q-46 0 -81 14t-58.5 38t-35.5 56.5t-12 69.5v167q0 38 12 70.5t35.5 56.5t58.5 37.5t81 13.5t81 -13.5t58.5 -37.5t35.5 -56.5t12 -70.5v-167q0 -37 -12 -69.5t-35.5 -56.5t-58.5 -38t-81 -14zM232 64q54 0 81.5 28t27.5 78v168q0 49 -27.5 77t-81.5 28t-81.5 -28 t-27.5 -77v-168q0 -50 27.5 -78t81.5 -28zM197 705l78 -81q5 -6 5 -15q0 -16 -10 -25.5t-23 -9.5q-10 0 -17 5t-15 13l-81 86q-3 4 -4 8.5t-1 8.5q0 14 10 23.5t21 9.5q14 0 20 -6.5t17 -16.5z"></glyph><glyph glyph-name="oacute" unicode="ó" d="M232 -8q-46 0 -81 14t-58.5 38t-35.5 56.5t-12 69.5v167q0 38 12 70.5t35.5 56.5t58.5 37.5t81 13.5t81 -13.5t58.5 -37.5t35.5 -56.5t12 -70.5v-167q0 -37 -12 -69.5t-35.5 -56.5t-58.5 -38t-81 -14zM232 64q54 0 81.5 28t27.5 78v168q0 49 -27.5 77t-81.5 28t-81.5 -28 t-27.5 -77v-168q0 -50 27.5 -78t81.5 -28zM161 624l78 81q11 10 17 16.5t20 6.5q11 0 21 -9.5t10 -23.5q0 -4 -1 -8.5t-4 -8.5l-81 -86q-9 -8 -15.5 -13t-16.5 -5q-14 0 -23.5 9.5t-9.5 25.5q0 9 5 15z"></glyph><glyph glyph-name="ocircumflex" unicode="ô" d="M232 -8q-46 0 -81 14t-58.5 38t-35.5 56.5t-12 69.5v167q0 38 12 70.5t35.5 56.5t58.5 37.5t81 13.5t81 -13.5t58.5 -37.5t35.5 -56.5t12 -70.5v-167q0 -37 -12 -69.5t-35.5 -56.5t-58.5 -38t-81 -14zM232 64q54 0 81.5 28t27.5 78v168q0 49 -27.5 77t-81.5 28t-81.5 -28 t-27.5 -77v-168q0 -50 27.5 -78t81.5 -28zM232 636l-75 -61q-2 -3 -8 -4.5t-11 -1.5q-10 0 -17.5 8t-7.5 18q0 8 5 15.5t13 14.5l79 67q5 3 10 5.5t12 2.5t12 -2.5t10 -5.5l79 -67q8 -7 13 -14.5t5 -15.5q0 -10 -7.5 -18t-18.5 -8q-4 0 -10 1.5t-8 4.5z"></glyph><glyph glyph-name="otilde" unicode="õ" d="M232 -8q-46 0 -81 14t-58.5 38t-35.5 56.5t-12 69.5v167q0 38 12 70.5t35.5 56.5t58.5 37.5t81 13.5t81 -13.5t58.5 -37.5t35.5 -56.5t12 -70.5v-167q0 -37 -12 -69.5t-35.5 -56.5t-58.5 -38t-81 -14zM232 64q54 0 81.5 28t27.5 78v168q0 49 -27.5 77t-81.5 28t-81.5 -28 t-27.5 -77v-168q0 -50 27.5 -78t81.5 -28zM370 650q0 -13 -7.5 -24t-19.5 -19t-26.5 -12.5t-28.5 -5.5q-16 0 -29.5 4.5t-25.5 10.5t-23 11t-22 6q-14 0 -22.5 -4t-15 -9.5t-12.5 -9.5t-14 -4q-11 0 -19.5 7.5t-10.5 19.5q0 28 25 46.5t57 18.5q16 0 29 -4.5t25 -10.5 t23 -11t23 -6q14 0 22.5 4t14.5 9t12 9.5t15 5.5q12 0 21 -9t9 -23z"></glyph><glyph glyph-name="odieresis" unicode="ö" d="M232 -8q-46 0 -81 14t-58.5 38t-35.5 56.5t-12 69.5v167q0 38 12 70.5t35.5 56.5t58.5 37.5t81 13.5t81 -13.5t58.5 -37.5t35.5 -56.5t12 -70.5v-167q0 -37 -12 -69.5t-35.5 -56.5t-58.5 -38t-81 -14zM232 64q54 0 81.5 28t27.5 78v168q0 49 -27.5 77t-81.5 28t-81.5 -28 t-27.5 -77v-168q0 -50 27.5 -78t81.5 -28zM363 639q0 -20 -13.5 -34.5t-33.5 -14.5t-34 14.5t-14 34.5q0 19 14 33t34 14t33.5 -13.5t13.5 -33.5zM194 639q0 -20 -14 -34.5t-34 -14.5t-33 14.5t-13 34.5q0 19 13 33t33 14t34 -13.5t14 -33.5z"></glyph><glyph glyph-name="oslash" unicode="ø" d="M40 21l33 47q-14 21 -21 47t-7 55v167q0 38 12 70.5t35.5 56.5t58.5 37.5t81 13.5q40 0 71.5 -10.5t54.5 -29.5l27 39q6 8 16.5 10.5t19.5 -4.5q10 -7 11.5 -17t-4.5 -19l-35 -49q26 -43 26 -98v-167q0 -37 -12 -69.5t-35.5 -56.5t-58.5 -38t-81 -14q-38 0 -69 10t-54 27 l-26 -38q-6 -8 -17 -10t-19 4q-9 6 -11 16.5t4 19.5zM123 170q0 -8 0.5 -14.5t1.5 -12.5l189 270q-28 30 -82 30t-81.5 -28t-27.5 -77v-168zM232 64q54 0 81.5 28t27.5 78v168v10t-1 10l-188 -268q28 -26 80 -26z"></glyph><glyph glyph-name="ugrave" unicode="ù" d="M352 123v350q0 16 9.5 27t29.5 11t29.5 -11t9.5 -27v-350q0 -21 1.5 -32t4.5 -18t6 -10.5t6 -9.5q2 -3 4.5 -8t2.5 -12q0 -14 -10.5 -24.5t-26.5 -10.5q-14 0 -24.5 8t-18.5 22q-33 -19 -70 -27.5t-72 -8.5q-80 0 -119.5 52t-39.5 137v292q0 16 10 27t29 11t29 -11 t10 -27v-292q0 -57 23.5 -88t68.5 -31q58 0 110 33q-1 8 -1.5 15t-0.5 13zM206 705l78 -81q5 -6 5 -15q0 -16 -10 -25.5t-23 -9.5q-10 0 -17 5t-15 13l-81 86q-3 4 -4 8.5t-1 8.5q0 14 10 23.5t21 9.5q14 0 20 -6.5t17 -16.5z"></glyph><glyph glyph-name="uacute" unicode="ú" d="M352 123v350q0 16 9.5 27t29.5 11t29.5 -11t9.5 -27v-350q0 -21 1.5 -32t4.5 -18t6 -10.5t6 -9.5q2 -3 4.5 -8t2.5 -12q0 -14 -10.5 -24.5t-26.5 -10.5q-14 0 -24.5 8t-18.5 22q-33 -19 -70 -27.5t-72 -8.5q-80 0 -119.5 52t-39.5 137v292q0 16 10 27t29 11t29 -11 t10 -27v-292q0 -57 23.5 -88t68.5 -31q58 0 110 33q-1 8 -1.5 15t-0.5 13zM217 624l78 81q11 10 17 16.5t20 6.5q11 0 21 -9.5t10 -23.5q0 -4 -1 -8.5t-4 -8.5l-81 -86q-9 -8 -15.5 -13t-16.5 -5q-14 0 -23.5 9.5t-9.5 25.5q0 9 5 15z"></glyph><glyph glyph-name="ucircumflex" unicode="û" d="M352 123v350q0 16 9.5 27t29.5 11t29.5 -11t9.5 -27v-350q0 -21 1.5 -32t4.5 -18t6 -10.5t6 -9.5q2 -3 4.5 -8t2.5 -12q0 -14 -10.5 -24.5t-26.5 -10.5q-14 0 -24.5 8t-18.5 22q-33 -19 -70 -27.5t-72 -8.5q-80 0 -119.5 52t-39.5 137v292q0 16 10 27t29 11t29 -11 t10 -27v-292q0 -57 23.5 -88t68.5 -31q58 0 110 33q-1 8 -1.5 15t-0.5 13zM254 636l-75 -61q-2 -3 -8 -4.5t-11 -1.5q-10 0 -17.5 8t-7.5 18q0 8 5 15.5t13 14.5l79 67q5 3 10 5.5t12 2.5t12 -2.5t10 -5.5l79 -67q8 -7 13 -14.5t5 -15.5q0 -10 -7.5 -18t-18.5 -8 q-4 0 -10 1.5t-8 4.5z"></glyph><glyph glyph-name="udieresis" unicode="ü" d="M352 123v350q0 16 9.5 27t29.5 11t29.5 -11t9.5 -27v-350q0 -21 1.5 -32t4.5 -18t6 -10.5t6 -9.5q2 -3 4.5 -8t2.5 -12q0 -14 -10.5 -24.5t-26.5 -10.5q-14 0 -24.5 8t-18.5 22q-33 -19 -70 -27.5t-72 -8.5q-80 0 -119.5 52t-39.5 137v292q0 16 10 27t29 11t29 -11 t10 -27v-292q0 -57 23.5 -88t68.5 -31q58 0 110 33q-1 8 -1.5 15t-0.5 13zM386 639q0 -20 -13.5 -34.5t-33.5 -14.5t-34 14.5t-14 34.5q0 19 14 33t34 14t33.5 -13.5t13.5 -33.5zM217 639q0 -20 -14 -34.5t-34 -14.5t-33 14.5t-13 34.5q0 19 13 33t33 14t34 -13.5t14 -33.5z "></glyph><glyph glyph-name="yacute" unicode="ý" d="M397 460l-122 -397q-18 -58 -35.5 -106.5t-41.5 -83.5t-57 -55t-82 -21q-17 0 -28.5 10.5t-11.5 27.5q0 14 10 25t27 12q24 1 41.5 8.5t31.5 23t25.5 39.5t22.5 59l-159 459q-2 2 -2 6.5v7.5q0 16 11 26t28 10q11 0 20.5 -6.5t14.5 -19.5l125 -379l109 379q5 13 15 19.5 t21 6.5q15 0 27 -11t12 -28q0 -4 -2 -12zM183 624l78 81q11 10 17 16.5t20 6.5q11 0 21 -9.5t10 -23.5q0 -4 -1 -8.5t-4 -8.5l-81 -86q-9 -8 -15.5 -13t-16.5 -5q-14 0 -23.5 9.5t-9.5 25.5q0 9 5 15z"></glyph><glyph glyph-name="thorn" unicode="þ" d="M152 396v-264q21 -23 48.5 -36.5t65.5 -13.5q51 0 73.5 23t22.5 65v188q0 42 -22.5 65t-73.5 23q-38 0 -65.5 -13.5t-48.5 -36.5zM74 -179v866q0 15 10 26.5t29 11.5t29 -11.5t10 -26.5v-214q28 20 60 30.5t73 10.5q43 0 72.5 -12t48 -33t26.5 -49.5t8 -61.5v-188 q0 -33 -8 -61.5t-26.5 -49.5t-48 -33t-72.5 -12q-41 0 -73 10.5t-60 30.5v-234q0 -15 -10 -26.5t-29 -11.5t-29 11.5t-10 26.5z"></glyph><glyph glyph-name="ydieresis" unicode="ÿ" d="M397 460l-122 -397q-18 -58 -35.5 -106.5t-41.5 -83.5t-57 -55t-82 -21q-17 0 -28.5 10.5t-11.5 27.5q0 14 10 25t27 12q24 1 41.5 8.5t31.5 23t25.5 39.5t22.5 59l-159 459q-2 2 -2 6.5v7.5q0 16 11 26t28 10q11 0 20.5 -6.5t14.5 -19.5l125 -379l109 379q5 13 15 19.5 t21 6.5q15 0 27 -11t12 -28q0 -4 -2 -12zM337 639q0 -20 -13.5 -34.5t-33.5 -14.5t-34 14.5t-14 34.5q0 19 14 33t34 14t33.5 -13.5t13.5 -33.5zM168 639q0 -20 -14 -34.5t-34 -14.5t-33 14.5t-13 34.5q0 19 13 33t33 14t34 -13.5t14 -33.5z"></glyph><glyph glyph-name="Amacron" unicode="Ā" d="M105 20q-5 -14 -16 -22t-22 -8q-17 0 -29.5 11t-12.5 29q0 3 0.5 8t1.5 7l195 617q7 23 18.5 38t33.5 15q23 0 34 -15t19 -38l195 -617q1 -2 1.5 -7t0.5 -8q0 -18 -12 -29t-30 -11q-11 0 -23 8t-16 22l-43 139h-253zM171 237h206l-103 339zM435 837q0 -15 -10.5 -25.5 t-25.5 -10.5h-249q-16 0 -26.5 10.5t-10.5 25.5t10.5 26t26.5 11h249q15 0 25.5 -11t10.5 -26z"></glyph><glyph glyph-name="amacron" unicode="ā" d="M322 338q0 107 -107 107q-26 0 -42.5 -6t-33.5 -15q-2 -1 -10 -4.5t-16 -3.5q-14 0 -20.5 11t-7.5 22q-1 17 10.5 29.5t32 20.5t46 11.5t51.5 3.5q94 0 134.5 -51t40.5 -151v-220q0 -30 18 -30q2 0 3.5 0.5t4.5 0.5q14 0 21.5 -10.5t7.5 -23.5q0 -19 -14 -26.5t-31 -7.5 q-25 0 -44.5 13.5t-30.5 36.5q-58 -53 -137 -53q-78 0 -115.5 41.5t-37.5 109.5v4q0 148 176 148q53 0 101 -14v57zM220 229q-31 0 -50 -6.5t-29.5 -18t-14.5 -26.5t-4 -32v-4q0 -35 18.5 -57.5t69.5 -22.5q32 0 59 10.5t53 33.5v108q-25 8 -52 11.5t-50 3.5zM379 637 q0 -15 -10.5 -25.5t-25.5 -10.5h-249q-16 0 -26.5 10.5t-10.5 25.5t10.5 26t26.5 11h249q15 0 25.5 -11t10.5 -26z"></glyph><glyph glyph-name="Abreve" unicode="Ă" d="M105 20q-5 -14 -16 -22t-22 -8q-17 0 -29.5 11t-12.5 29q0 3 0.5 8t1.5 7l195 617q7 23 18.5 38t33.5 15q23 0 34 -15t19 -38l195 -617q1 -2 1.5 -7t0.5 -8q0 -18 -12 -29t-30 -11q-11 0 -23 8t-16 22l-43 139h-253zM171 237h206l-103 339zM274 833q17 0 33 9t32 32 q5 8 13.5 12t16.5 4q13 0 22 -8.5t4 -28.5t-18 -35.5t-30.5 -25.5t-36.5 -15t-36 -5t-36 5t-36.5 15t-31 25.5t-18.5 35.5t4.5 28.5t22.5 8.5q8 0 16.5 -4t13.5 -12q16 -23 32 -32t33 -9z"></glyph><glyph glyph-name="abreve" unicode="ă" d="M322 338q0 107 -107 107q-26 0 -42.5 -6t-33.5 -15q-2 -1 -10 -4.5t-16 -3.5q-14 0 -20.5 11t-7.5 22q-1 17 10.5 29.5t32 20.5t46 11.5t51.5 3.5q94 0 134.5 -51t40.5 -151v-220q0 -30 18 -30q2 0 3.5 0.5t4.5 0.5q14 0 21.5 -10.5t7.5 -23.5q0 -19 -14 -26.5t-31 -7.5 q-25 0 -44.5 13.5t-30.5 36.5q-58 -53 -137 -53q-78 0 -115.5 41.5t-37.5 109.5v4q0 148 176 148q53 0 101 -14v57zM220 229q-31 0 -50 -6.5t-29.5 -18t-14.5 -26.5t-4 -32v-4q0 -35 18.5 -57.5t69.5 -22.5q32 0 59 10.5t53 33.5v108q-25 8 -52 11.5t-50 3.5zM241 633 q17 0 33 9t32 32q5 8 13.5 12t16.5 4q13 0 22 -8.5t4 -28.5t-18 -35.5t-30.5 -25.5t-36.5 -15t-36 -5t-36 5t-36.5 15t-31 25.5t-18.5 35.5t4.5 28.5t22.5 8.5q8 0 16.5 -4t13.5 -12q16 -23 32 -32t33 -9z"></glyph><glyph glyph-name="Aogonek" unicode="Ą" d="M592 -156q0 -13 -7.5 -20.5t-19 -11.5t-25 -5.5t-25.5 -1.5q-47 0 -75 21.5t-28 68.5q0 26 12 55t29 53q-7 5 -10 17l-43 139h-253l-42 -139q-5 -14 -16 -22t-22 -8q-17 0 -29.5 11t-12.5 29q0 3 0.5 8t1.5 7l195 617q7 23 18.5 38t33.5 15q23 0 34 -15t19 -38l195 -617 q1 -2 1.5 -7t0.5 -8q0 -11 -5 -18t-10 -13q-15 -17 -22.5 -42t-7.5 -46q0 -19 10.5 -32t33.5 -13q18 0 26 2.5t16 2.5q11 0 19 -8t8 -19zM171 237h206l-103 339z"></glyph><glyph glyph-name="aogonek" unicode="ą" d="M518 -156q0 -13 -7.5 -20.5t-19 -11.5t-25 -5.5t-25.5 -1.5q-47 0 -75 21.5t-28 68.5q0 26 11 53.5t30 52.5q-29 12 -44 44q-58 -53 -137 -53q-78 0 -115.5 41.5t-37.5 109.5v4q0 148 176 148q53 0 101 -14v57q0 107 -107 107q-26 0 -42.5 -6t-33.5 -15q-2 -1 -10 -4.5 t-16 -3.5q-14 0 -20.5 11t-7.5 22q-1 17 10.5 29.5t32 20.5t46 11.5t51.5 3.5q94 0 134.5 -51t40.5 -151v-220q0 -30 18 -30q2 0 3.5 0.5t4.5 0.5q14 0 21.5 -10.5t7.5 -23.5q0 -11 -6 -17t-13 -12q-16 -16 -23.5 -42t-7.5 -47q0 -19 10.5 -32t33.5 -13q18 0 26 2.5t16 2.5 q11 0 19 -8t8 -19zM220 229q-31 0 -50 -6.5t-29.5 -18t-14.5 -26.5t-4 -32v-4q0 -35 18.5 -57.5t69.5 -22.5q32 0 59 10.5t53 33.5v108q-25 8 -52 11.5t-50 3.5z"></glyph><glyph glyph-name="Cacute" unicode="Ć" d="M45 246v214q0 58 13.5 105t41.5 80.5t70 51.5t100 18q34 0 66 -7t56.5 -18.5t39.5 -27t15 -33.5q0 -14 -10 -24.5t-26 -10.5q-11 0 -17.5 4.5t-18.5 12.5q-44 31 -100 31q-42 0 -71 -12.5t-46.5 -36.5t-25 -57.5t-7.5 -75.5v-214q0 -42 7.5 -75.5t25 -57.5t46.5 -36.5 t71 -12.5q56 0 100 31q13 8 19 12.5t17 4.5q16 0 26 -10.5t10 -24.5q0 -18 -15 -33.5t-39.5 -27t-56.5 -18.5t-66 -7q-58 0 -100 18t-70 51.5t-41.5 80.5t-13.5 105zM238 824l78 81q11 10 17 16.5t20 6.5q11 0 21 -9.5t10 -23.5q0 -4 -1 -8.5t-4 -8.5l-81 -86 q-9 -8 -15.5 -13t-16.5 -5q-14 0 -23.5 9.5t-9.5 25.5q0 9 5 15z"></glyph><glyph glyph-name="cacute" unicode="ć" d="M45 176v151q0 39 10.5 72.5t32 58t55.5 39t81 14.5q18 0 41.5 -3t45.5 -10t37 -18.5t15 -29.5q0 -14 -10 -24t-24 -10q-7 0 -16 3q-18 9 -36.5 16t-44.5 7q-59 0 -84 -30t-25 -85v-151q0 -55 25 -85t84 -30q26 0 44.5 7t36.5 16q9 3 16 3q14 0 24 -10t10 -24 q0 -18 -15 -29.5t-37 -18.5t-45.5 -10t-41.5 -3q-47 0 -81 14.5t-55.5 39t-32 58t-10.5 72.5zM176 624l78 81q11 10 17 16.5t20 6.5q11 0 21 -9.5t10 -23.5q0 -4 -1 -8.5t-4 -8.5l-81 -86q-9 -8 -15.5 -13t-16.5 -5q-14 0 -23.5 9.5t-9.5 25.5q0 9 5 15z"></glyph><glyph glyph-name="Ccircumflex" unicode="Ĉ" d="M45 246v214q0 58 13.5 105t41.5 80.5t70 51.5t100 18q34 0 66 -7t56.5 -18.5t39.5 -27t15 -33.5q0 -14 -10 -24.5t-26 -10.5q-11 0 -17.5 4.5t-18.5 12.5q-44 31 -100 31q-42 0 -71 -12.5t-46.5 -36.5t-25 -57.5t-7.5 -75.5v-214q0 -42 7.5 -75.5t25 -57.5t46.5 -36.5 t71 -12.5q56 0 100 31q13 8 19 12.5t17 4.5q16 0 26 -10.5t10 -24.5q0 -18 -15 -33.5t-39.5 -27t-56.5 -18.5t-66 -7q-58 0 -100 18t-70 51.5t-41.5 80.5t-13.5 105zM267 836l-75 -61q-2 -3 -8 -4.5t-11 -1.5q-10 0 -17.5 8t-7.5 18q0 8 5 15.5t13 14.5l79 67q5 3 10 5.5 t12 2.5t12 -2.5t10 -5.5l79 -67q8 -7 13 -14.5t5 -15.5q0 -10 -7.5 -18t-18.5 -8q-4 0 -10 1.5t-8 4.5z"></glyph><glyph glyph-name="ccircumflex" unicode="ĉ" d="M45 176v151q0 39 10.5 72.5t32 58t55.5 39t81 14.5q18 0 41.5 -3t45.5 -10t37 -18.5t15 -29.5q0 -14 -10 -24t-24 -10q-7 0 -16 3q-18 9 -36.5 16t-44.5 7q-59 0 -84 -30t-25 -85v-151q0 -55 25 -85t84 -30q26 0 44.5 7t36.5 16q9 3 16 3q14 0 24 -10t10 -24 q0 -18 -15 -29.5t-37 -18.5t-45.5 -10t-41.5 -3q-47 0 -81 14.5t-55.5 39t-32 58t-10.5 72.5zM197 636l-75 -61q-2 -3 -8 -4.5t-11 -1.5q-10 0 -17.5 8t-7.5 18q0 8 5 15.5t13 14.5l79 67q5 3 10 5.5t12 2.5t12 -2.5t10 -5.5l79 -67q8 -7 13 -14.5t5 -15.5q0 -10 -7.5 -18 t-18.5 -8q-4 0 -10 1.5t-8 4.5z"></glyph><glyph glyph-name="Cdotaccent" unicode="Ċ" d="M45 246v214q0 58 13.5 105t41.5 80.5t70 51.5t100 18q34 0 66 -7t56.5 -18.5t39.5 -27t15 -33.5q0 -14 -10 -24.5t-26 -10.5q-11 0 -17.5 4.5t-18.5 12.5q-44 31 -100 31q-42 0 -71 -12.5t-46.5 -36.5t-25 -57.5t-7.5 -75.5v-214q0 -42 7.5 -75.5t25 -57.5t46.5 -36.5 t71 -12.5q56 0 100 31q13 8 19 12.5t17 4.5q16 0 26 -10.5t10 -24.5q0 -18 -15 -33.5t-39.5 -27t-56.5 -18.5t-66 -7q-58 0 -100 18t-70 51.5t-41.5 80.5t-13.5 105zM288 839q0 -20 -14 -34.5t-34 -14.5t-33 14.5t-13 34.5q0 19 13 33t33 14t34 -13.5t14 -33.5z"></glyph><glyph glyph-name="cdotaccent" unicode="ċ" d="M45 176v151q0 39 10.5 72.5t32 58t55.5 39t81 14.5q18 0 41.5 -3t45.5 -10t37 -18.5t15 -29.5q0 -14 -10 -24t-24 -10q-7 0 -16 3q-18 9 -36.5 16t-44.5 7q-59 0 -84 -30t-25 -85v-151q0 -55 25 -85t84 -30q26 0 44.5 7t36.5 16q9 3 16 3q14 0 24 -10t10 -24 q0 -18 -15 -29.5t-37 -18.5t-45.5 -10t-41.5 -3q-47 0 -81 14.5t-55.5 39t-32 58t-10.5 72.5zM243 639q0 -20 -14 -34.5t-34 -14.5t-33 14.5t-13 34.5q0 19 13 33t33 14t34 -13.5t14 -33.5z"></glyph><glyph glyph-name="Ccaron" unicode="Č" d="M45 246v214q0 58 13.5 105t41.5 80.5t70 51.5t100 18q34 0 66 -7t56.5 -18.5t39.5 -27t15 -33.5q0 -14 -10 -24.5t-26 -10.5q-11 0 -17.5 4.5t-18.5 12.5q-44 31 -100 31q-42 0 -71 -12.5t-46.5 -36.5t-25 -57.5t-7.5 -75.5v-214q0 -42 7.5 -75.5t25 -57.5t46.5 -36.5 t71 -12.5q56 0 100 31q13 8 19 12.5t17 4.5q16 0 26 -10.5t10 -24.5q0 -18 -15 -33.5t-39.5 -27t-56.5 -18.5t-66 -7q-58 0 -100 18t-70 51.5t-41.5 80.5t-13.5 105zM276 762q-13 0 -24 9l-88 73q-10 8 -15 15.5t-5 18.5q0 13 9.5 21t21.5 8q8 0 18 -7l83 -67l83 67 q11 7 18 7q12 0 21.5 -8t9.5 -21q0 -11 -5 -18.5t-15 -15.5l-88 -73q-11 -9 -24 -9z"></glyph><glyph glyph-name="ccaron" unicode="č" d="M45 176v151q0 39 10.5 72.5t32 58t55.5 39t81 14.5q18 0 41.5 -3t45.5 -10t37 -18.5t15 -29.5q0 -14 -10 -24t-24 -10q-7 0 -16 3q-18 9 -36.5 16t-44.5 7q-59 0 -84 -30t-25 -85v-151q0 -55 25 -85t84 -30q26 0 44.5 7t36.5 16q9 3 16 3q14 0 24 -10t10 -24 q0 -18 -15 -29.5t-37 -18.5t-45.5 -10t-41.5 -3q-47 0 -81 14.5t-55.5 39t-32 58t-10.5 72.5zM223 562q-13 0 -24 9l-88 73q-10 8 -15 15.5t-5 18.5q0 13 9.5 21t21.5 8q8 0 18 -7l83 -67l83 67q11 7 18 7q12 0 21.5 -8t9.5 -21q0 -11 -5 -18.5t-15 -15.5l-88 -73 q-11 -9 -24 -9z"></glyph><glyph glyph-name="Dcaron" unicode="Ď" d="M508 264q0 -51 -14 -99t-46 -84.5t-84.5 -58.5t-129.5 -22h-113q-20 0 -34 14t-14 34v610q0 20 14 34t34 14h113q77 0 129 -21t84.5 -56t46.5 -81.5t14 -96.5v-187zM428 264v187q0 37 -9.5 69.5t-30.5 56.5t-54.5 37.5t-82.5 13.5h-98v-550h98q50 0 83.5 14.5t54.5 40 t30 59t9 72.5zM277 762q-13 0 -24 9l-88 73q-10 8 -15 15.5t-5 18.5q0 13 9.5 21t21.5 8q8 0 18 -7l83 -67l83 67q11 7 18 7q12 0 21.5 -8t9.5 -21q0 -11 -5 -18.5t-15 -15.5l-88 -73q-11 -9 -24 -9z"></glyph><glyph glyph-name="dcaron" unicode="ď" d="M212 510q25 0 54.5 -5t56.5 -14v196q0 16 10 27t29 11t29 -11t10 -27v-573q0 -21 5.5 -35t20.5 -25q3 -5 5 -9t2 -11q0 -16 -11 -25.5t-24 -9.5q-17 0 -30.5 9t-22.5 23q-33 -17 -68.5 -28t-73.5 -11q-79 0 -119 52.5t-40 136.5v127q0 45 8 82t27.5 63.5t51.5 41.5t80 15 zM323 114v307q-25 11 -54 16t-47 5q-55 0 -77 -32t-22 -102v-127q0 -119 97 -119q24 0 51.5 7.5t53.5 21.5q-2 6 -2 12v11zM581 672q0 -25 -8 -54t-20 -53.5t-25 -40.5t-23 -16q-8 0 -13.5 3.5t-5.5 13.5q0 12 4 22t10 20.5t12.5 22t10.5 27.5q-21 2 -35 17.5t-14 37.5 t15.5 37.5t38.5 15.5q22 0 37.5 -15.5t15.5 -37.5z"></glyph><glyph glyph-name="Dcroat" unicode="Đ" d="M528 264q0 -51 -14 -99t-46 -84.5t-84.5 -58.5t-129.5 -22h-113q-20 0 -34 14t-14 34v269h-39q-16 0 -26.5 10.5t-10.5 25.5t10.5 26t26.5 11h39v268q0 20 14 34t34 14h113q77 0 129 -21t84.5 -56t46.5 -81.5t14 -96.5v-187zM339 353q0 -15 -10.5 -25.5t-25.5 -10.5h-130 v-239h98q50 0 83.5 14.5t54.5 40t30 59t9 72.5v187q0 37 -9.5 69.5t-30.5 56.5t-54.5 37.5t-82.5 13.5h-98v-238h130q15 0 25.5 -11t10.5 -26z"></glyph><glyph glyph-name="dcroat" unicode="đ" d="M484 606q0 -15 -10.5 -25.5t-25.5 -10.5h-47v-456q0 -21 5.5 -35t20.5 -25q3 -5 5 -9t2 -11q0 -16 -11 -25.5t-24 -9.5q-17 0 -30.5 9t-22.5 23q-33 -17 -68.5 -28t-73.5 -11q-79 0 -119 52.5t-40 136.5v127q0 45 8 82t27.5 63.5t51.5 41.5t80 15q25 0 54.5 -5t56.5 -14 v79h-124q-16 0 -26.5 10.5t-10.5 25.5t10.5 26t26.5 11h124v44q0 16 10 27t29 11t29 -11t10 -27v-44h47q15 0 25.5 -11t10.5 -26zM323 114v307q-25 11 -54 16t-47 5q-55 0 -77 -32t-22 -102v-127q0 -119 97 -119q24 0 51.5 7.5t53.5 21.5q-2 6 -2 12v11z"></glyph><glyph glyph-name="Emacron" unicode="Ē" d="M441 41q0 -17 -11.5 -29t-28.5 -12h-265q-25 0 -44 10t-19 37v611q0 17 13.5 32t33.5 15h271q17 0 28.5 -11.5t11.5 -28.5t-11.5 -27.5t-28.5 -10.5h-238v-234h219q15 0 27 -11t12 -28t-11 -28t-28 -11h-219v-237h248q16 0 28 -11t12 -26zM398 837q0 -15 -10.5 -25.5 t-25.5 -10.5h-249q-16 0 -26.5 10.5t-10.5 25.5t10.5 26t26.5 11h249q15 0 25.5 -11t10.5 -26z"></glyph><glyph glyph-name="emacron" unicode="ē" d="M232 61q32 0 55 8t49 20q2 1 5.5 2t8.5 1q15 0 25 -10.5t10 -24.5q0 -18 -17.5 -30.5t-43 -20t-53.5 -11t-48 -3.5q-42 0 -75.5 12.5t-56 35t-34.5 53t-12 65.5v187q0 36 12 67t35 53.5t57 35.5t79 13q84 0 125 -44t41 -119q0 -69 -39.5 -108.5t-129.5 -39.5 q-23 0 -49.5 2t-52.5 7v-59q0 -42 27.5 -67t81.5 -25zM317 351q0 49 -23.5 70.5t-67.5 21.5q-49 0 -76 -24.5t-27 -66.5v-76q28 -4 59 -5.5t46 -1.5q29 0 46 7t27 18.5t13 26.5t3 30zM378 637q0 -15 -10.5 -25.5t-25.5 -10.5h-249q-16 0 -26.5 10.5t-10.5 25.5t10.5 26 t26.5 11h249q15 0 25.5 -11t10.5 -26z"></glyph><glyph glyph-name="Ebreve" unicode="Ĕ" d="M441 41q0 -17 -11.5 -29t-28.5 -12h-265q-25 0 -44 10t-19 37v611q0 17 13.5 32t33.5 15h271q17 0 28.5 -11.5t11.5 -28.5t-11.5 -27.5t-28.5 -10.5h-238v-234h219q15 0 27 -11t12 -28t-11 -28t-28 -11h-219v-237h248q16 0 28 -11t12 -26zM237 833q17 0 33 9t32 32 q5 8 13.5 12t16.5 4q13 0 22 -8.5t4 -28.5t-18 -35.5t-30.5 -25.5t-36.5 -15t-36 -5t-36 5t-36.5 15t-31 25.5t-18.5 35.5t4.5 28.5t22.5 8.5q8 0 16.5 -4t13.5 -12q16 -23 32 -32t33 -9z"></glyph><glyph glyph-name="ebreve" unicode="ĕ" d="M232 61q32 0 55 8t49 20q2 1 5.5 2t8.5 1q15 0 25 -10.5t10 -24.5q0 -18 -17.5 -30.5t-43 -20t-53.5 -11t-48 -3.5q-42 0 -75.5 12.5t-56 35t-34.5 53t-12 65.5v187q0 36 12 67t35 53.5t57 35.5t79 13q84 0 125 -44t41 -119q0 -69 -39.5 -108.5t-129.5 -39.5 q-23 0 -49.5 2t-52.5 7v-59q0 -42 27.5 -67t81.5 -25zM317 351q0 49 -23.5 70.5t-67.5 21.5q-49 0 -76 -24.5t-27 -66.5v-76q28 -4 59 -5.5t46 -1.5q29 0 46 7t27 18.5t13 26.5t3 30zM217 633q17 0 33 9t32 32q5 8 13.5 12t16.5 4q13 0 22 -8.5t4 -28.5t-18 -35.5 t-30.5 -25.5t-36.5 -15t-36 -5t-36 5t-36.5 15t-31 25.5t-18.5 35.5t4.5 28.5t22.5 8.5q8 0 16.5 -4t13.5 -12q16 -23 32 -32t33 -9z"></glyph><glyph glyph-name="Edotaccent" unicode="Ė" d="M441 41q0 -17 -11.5 -29t-28.5 -12h-265q-25 0 -44 10t-19 37v611q0 17 13.5 32t33.5 15h271q17 0 28.5 -11.5t11.5 -28.5t-11.5 -27.5t-28.5 -10.5h-238v-234h219q15 0 27 -11t12 -28t-11 -28t-28 -11h-219v-237h248q16 0 28 -11t12 -26zM284 839q0 -20 -14 -34.5 t-34 -14.5t-33 14.5t-13 34.5q0 19 13 33t33 14t34 -13.5t14 -33.5z"></glyph><glyph glyph-name="edotaccent" unicode="ė" d="M232 61q32 0 55 8t49 20q2 1 5.5 2t8.5 1q15 0 25 -10.5t10 -24.5q0 -18 -17.5 -30.5t-43 -20t-53.5 -11t-48 -3.5q-42 0 -75.5 12.5t-56 35t-34.5 53t-12 65.5v187q0 36 12 67t35 53.5t57 35.5t79 13q84 0 125 -44t41 -119q0 -69 -39.5 -108.5t-129.5 -39.5 q-23 0 -49.5 2t-52.5 7v-59q0 -42 27.5 -67t81.5 -25zM317 351q0 49 -23.5 70.5t-67.5 21.5q-49 0 -76 -24.5t-27 -66.5v-76q28 -4 59 -5.5t46 -1.5q29 0 46 7t27 18.5t13 26.5t3 30zM264 639q0 -20 -14 -34.5t-34 -14.5t-33 14.5t-13 34.5q0 19 13 33t33 14t34 -13.5 t14 -33.5z"></glyph><glyph glyph-name="Eogonek" unicode="Ę" d="M483 -156q0 -13 -7.5 -20.5t-19 -11.5t-25 -5.5t-25.5 -1.5q-47 0 -75 21.5t-28 68.5q0 26 10.5 53.5t27.5 51.5h-205q-25 0 -44 10t-19 37v611q0 17 13.5 32t33.5 15h271q17 0 28.5 -11.5t11.5 -28.5t-11.5 -27.5t-28.5 -10.5h-238v-234h219q15 0 27 -11t12 -28t-11 -28 t-28 -11h-219v-237h248q16 0 28 -11t12 -26q0 -17 -11.5 -29t-28.5 -12q-10 -20 -20.5 -44t-10.5 -45q0 -19 10.5 -32t33.5 -13q18 0 26 2.5t16 2.5q11 0 19 -8t8 -19z"></glyph><glyph glyph-name="eogonek" unicode="ę" d="M394 -156q0 -13 -7.5 -20.5t-19 -11.5t-25 -5.5t-25.5 -1.5q-47 0 -75 21.5t-28 68.5q0 51 33 98q-7 0 -13 -0.5t-11 -0.5q-42 0 -75.5 12.5t-56 35t-34.5 53t-12 65.5v187q0 36 12 67t35 53.5t57 35.5t79 13q84 0 125 -44t41 -119q0 -69 -39.5 -108.5t-129.5 -39.5 q-23 0 -49.5 2t-52.5 7v-59q0 -42 27.5 -67t81.5 -25q32 0 55 8t49 20q2 1 5.5 2t8.5 1q15 0 25 -10.5t10 -24.5q0 -10 -6 -16.5t-15 -12.5t-21 -11.5t-24 -12.5t-19.5 -18.5t-11.5 -24.5t-5.5 -26t-1.5 -24q0 -19 10.5 -32t33.5 -13q18 0 26 2.5t16 2.5q11 0 19 -8t8 -19z M317 351q0 49 -23.5 70.5t-67.5 21.5q-49 0 -76 -24.5t-27 -66.5v-76q28 -4 59 -5.5t46 -1.5q29 0 46 7t27 18.5t13 26.5t3 30z"></glyph><glyph glyph-name="Ecaron" unicode="Ě" d="M441 41q0 -17 -11.5 -29t-28.5 -12h-265q-25 0 -44 10t-19 37v611q0 17 13.5 32t33.5 15h271q17 0 28.5 -11.5t11.5 -28.5t-11.5 -27.5t-28.5 -10.5h-238v-234h219q15 0 27 -11t12 -28t-11 -28t-28 -11h-219v-237h248q16 0 28 -11t12 -26zM267 762q-13 0 -24 9l-88 73 q-10 8 -15 15.5t-5 18.5q0 13 9.5 21t21.5 8q8 0 18 -7l83 -67l83 67q11 7 18 7q12 0 21.5 -8t9.5 -21q0 -11 -5 -18.5t-15 -15.5l-88 -73q-11 -9 -24 -9z"></glyph><glyph glyph-name="ecaron" unicode="ě" d="M232 61q32 0 55 8t49 20q2 1 5.5 2t8.5 1q15 0 25 -10.5t10 -24.5q0 -18 -17.5 -30.5t-43 -20t-53.5 -11t-48 -3.5q-42 0 -75.5 12.5t-56 35t-34.5 53t-12 65.5v187q0 36 12 67t35 53.5t57 35.5t79 13q84 0 125 -44t41 -119q0 -69 -39.5 -108.5t-129.5 -39.5 q-23 0 -49.5 2t-52.5 7v-59q0 -42 27.5 -67t81.5 -25zM317 351q0 49 -23.5 70.5t-67.5 21.5q-49 0 -76 -24.5t-27 -66.5v-76q28 -4 59 -5.5t46 -1.5q29 0 46 7t27 18.5t13 26.5t3 30zM217 562q-13 0 -24 9l-88 73q-10 8 -15 15.5t-5 18.5q0 13 9.5 21t21.5 8q8 0 18 -7 l83 -67l83 67q11 7 18 7q12 0 21.5 -8t9.5 -21q0 -11 -5 -18.5t-15 -15.5l-88 -73q-11 -9 -24 -9z"></glyph><glyph glyph-name="Gcircumflex" unicode="Ĝ" d="M125 460v-214q0 -42 7.5 -75.5t25 -57.5t46.5 -36.5t71 -12.5q36 0 63 10t50 27v215h-97q-15 0 -26.5 11t-11.5 27t11.5 27t26.5 11h119q24 0 40.5 -11t16.5 -35v-239q0 -30 -18.5 -52t-47 -36.5t-63.5 -21t-68 -6.5q-58 0 -100 18t-70 51.5t-41.5 80.5t-13.5 105v214 q0 58 13.5 105t41.5 80.5t70 51.5t100 18q34 0 66 -7t56.5 -18.5t39.5 -27t15 -33.5q0 -14 -10 -24.5t-26 -10.5q-11 0 -17.5 4.5t-18.5 12.5q-44 31 -100 31q-42 0 -71 -12.5t-46.5 -36.5t-25 -57.5t-7.5 -75.5zM260 836l-75 -61q-2 -3 -8 -4.5t-11 -1.5q-10 0 -17.5 8 t-7.5 18q0 8 5 15.5t13 14.5l79 67q5 3 10 5.5t12 2.5t12 -2.5t10 -5.5l79 -67q8 -7 13 -14.5t5 -15.5q0 -10 -7.5 -18t-18.5 -8q-4 0 -10 1.5t-8 4.5z"></glyph><glyph glyph-name="gcircumflex" unicode="ĝ" d="M231 514q35 0 68.5 -8.5t62.5 -25.5q17 31 40 44.5t40 13.5q16 0 26.5 -10t10.5 -25q0 -8 -2.5 -13t-4.5 -7q-14 -14 -24.5 -24t-17 -20t-9.5 -22.5t-3 -30.5v-62q0 -38 -11.5 -71t-34 -57t-56.5 -38t-79 -14q-46 0 -79 13q-7 -13 -9.5 -25t-2.5 -21q0 -13 5.5 -21.5 t13.5 -13.5t17.5 -7t17.5 -2h42q43 0 79.5 -9t63.5 -27t42 -46t15 -65q0 -38 -15.5 -68t-43 -51t-65 -32.5t-81.5 -11.5q-42 0 -77.5 10.5t-61 30t-39.5 48.5t-14 65q0 37 13.5 66t39.5 54q-17 17 -23.5 38.5t-6.5 38.5q0 18 7.5 40t30.5 42q-54 51 -54 141q0 39 11 72.5 t33.5 58t56 38.5t78.5 14zM340 385q0 8 0.5 15t1.5 14q-23 14 -48 22t-53 8q-56 0 -83.5 -29.5t-27.5 -85.5q0 -51 25 -82t82 -31q54 0 78.5 28t24.5 78v63zM202 -5q-23 0 -45 5q-34 -30 -34 -78q0 -45 29 -69t87 -24q54 0 89.5 22t35.5 67q0 77 -120 77h-42zM246 636 l-75 -61q-2 -3 -8 -4.5t-11 -1.5q-10 0 -17.5 8t-7.5 18q0 8 5 15.5t13 14.5l79 67q5 3 10 5.5t12 2.5t12 -2.5t10 -5.5l79 -67q8 -7 13 -14.5t5 -15.5q0 -10 -7.5 -18t-18.5 -8q-4 0 -10 1.5t-8 4.5z"></glyph><glyph glyph-name="Gbreve" unicode="Ğ" d="M125 460v-214q0 -42 7.5 -75.5t25 -57.5t46.5 -36.5t71 -12.5q36 0 63 10t50 27v215h-97q-15 0 -26.5 11t-11.5 27t11.5 27t26.5 11h119q24 0 40.5 -11t16.5 -35v-239q0 -30 -18.5 -52t-47 -36.5t-63.5 -21t-68 -6.5q-58 0 -100 18t-70 51.5t-41.5 80.5t-13.5 105v214 q0 58 13.5 105t41.5 80.5t70 51.5t100 18q34 0 66 -7t56.5 -18.5t39.5 -27t15 -33.5q0 -14 -10 -24.5t-26 -10.5q-11 0 -17.5 4.5t-18.5 12.5q-44 31 -100 31q-42 0 -71 -12.5t-46.5 -36.5t-25 -57.5t-7.5 -75.5zM260 833q17 0 33 9t32 32q5 8 13.5 12t16.5 4q13 0 22 -8.5 t4 -28.5t-18 -35.5t-30.5 -25.5t-36.5 -15t-36 -5t-36 5t-36.5 15t-31 25.5t-18.5 35.5t4.5 28.5t22.5 8.5q8 0 16.5 -4t13.5 -12q16 -23 32 -32t33 -9z"></glyph><glyph glyph-name="gbreve" unicode="ğ" d="M231 514q35 0 68.5 -8.5t62.5 -25.5q17 31 40 44.5t40 13.5q16 0 26.5 -10t10.5 -25q0 -8 -2.5 -13t-4.5 -7q-14 -14 -24.5 -24t-17 -20t-9.5 -22.5t-3 -30.5v-62q0 -38 -11.5 -71t-34 -57t-56.5 -38t-79 -14q-46 0 -79 13q-7 -13 -9.5 -25t-2.5 -21q0 -13 5.5 -21.5 t13.5 -13.5t17.5 -7t17.5 -2h42q43 0 79.5 -9t63.5 -27t42 -46t15 -65q0 -38 -15.5 -68t-43 -51t-65 -32.5t-81.5 -11.5q-42 0 -77.5 10.5t-61 30t-39.5 48.5t-14 65q0 37 13.5 66t39.5 54q-17 17 -23.5 38.5t-6.5 38.5q0 18 7.5 40t30.5 42q-54 51 -54 141q0 39 11 72.5 t33.5 58t56 38.5t78.5 14zM340 385q0 8 0.5 15t1.5 14q-23 14 -48 22t-53 8q-56 0 -83.5 -29.5t-27.5 -85.5q0 -51 25 -82t82 -31q54 0 78.5 28t24.5 78v63zM202 -5q-23 0 -45 5q-34 -30 -34 -78q0 -45 29 -69t87 -24q54 0 89.5 22t35.5 67q0 77 -120 77h-42zM246 633 q17 0 33 9t32 32q5 8 13.5 12t16.5 4q13 0 22 -8.5t4 -28.5t-18 -35.5t-30.5 -25.5t-36.5 -15t-36 -5t-36 5t-36.5 15t-31 25.5t-18.5 35.5t4.5 28.5t22.5 8.5q8 0 16.5 -4t13.5 -12q16 -23 32 -32t33 -9z"></glyph><glyph glyph-name="Gdotaccent" unicode="Ġ" d="M125 460v-214q0 -42 7.5 -75.5t25 -57.5t46.5 -36.5t71 -12.5q36 0 63 10t50 27v215h-97q-15 0 -26.5 11t-11.5 27t11.5 27t26.5 11h119q24 0 40.5 -11t16.5 -35v-239q0 -30 -18.5 -52t-47 -36.5t-63.5 -21t-68 -6.5q-58 0 -100 18t-70 51.5t-41.5 80.5t-13.5 105v214 q0 58 13.5 105t41.5 80.5t70 51.5t100 18q34 0 66 -7t56.5 -18.5t39.5 -27t15 -33.5q0 -14 -10 -24.5t-26 -10.5q-11 0 -17.5 4.5t-18.5 12.5q-44 31 -100 31q-42 0 -71 -12.5t-46.5 -36.5t-25 -57.5t-7.5 -75.5zM307 839q0 -20 -14 -34.5t-34 -14.5t-33 14.5t-13 34.5 q0 19 13 33t33 14t34 -13.5t14 -33.5z"></glyph><glyph glyph-name="gdotaccent" unicode="ġ" d="M231 514q35 0 68.5 -8.5t62.5 -25.5q17 31 40 44.5t40 13.5q16 0 26.5 -10t10.5 -25q0 -8 -2.5 -13t-4.5 -7q-14 -14 -24.5 -24t-17 -20t-9.5 -22.5t-3 -30.5v-62q0 -38 -11.5 -71t-34 -57t-56.5 -38t-79 -14q-46 0 -79 13q-7 -13 -9.5 -25t-2.5 -21q0 -13 5.5 -21.5 t13.5 -13.5t17.5 -7t17.5 -2h42q43 0 79.5 -9t63.5 -27t42 -46t15 -65q0 -38 -15.5 -68t-43 -51t-65 -32.5t-81.5 -11.5q-42 0 -77.5 10.5t-61 30t-39.5 48.5t-14 65q0 37 13.5 66t39.5 54q-17 17 -23.5 38.5t-6.5 38.5q0 18 7.5 40t30.5 42q-54 51 -54 141q0 39 11 72.5 t33.5 58t56 38.5t78.5 14zM340 385q0 8 0.5 15t1.5 14q-23 14 -48 22t-53 8q-56 0 -83.5 -29.5t-27.5 -85.5q0 -51 25 -82t82 -31q54 0 78.5 28t24.5 78v63zM202 -5q-23 0 -45 5q-34 -30 -34 -78q0 -45 29 -69t87 -24q54 0 89.5 22t35.5 67q0 77 -120 77h-42zM293 639 q0 -20 -14 -34.5t-34 -14.5t-33 14.5t-13 34.5q0 19 13 33t33 14t34 -13.5t14 -33.5z"></glyph><glyph glyph-name="uni0122" unicode="Ģ" d="M125 460v-214q0 -42 7.5 -75.5t25 -57.5t46.5 -36.5t71 -12.5q36 0 63 10t50 27v215h-97q-15 0 -26.5 11t-11.5 27t11.5 27t26.5 11h119q24 0 40.5 -11t16.5 -35v-239q0 -30 -18.5 -52t-47 -36.5t-63.5 -21t-68 -6.5q-58 0 -100 18t-70 51.5t-41.5 80.5t-13.5 105v214 q0 58 13.5 105t41.5 80.5t70 51.5t100 18q34 0 66 -7t56.5 -18.5t39.5 -27t15 -33.5q0 -14 -10 -24.5t-26 -10.5q-11 0 -17.5 4.5t-18.5 12.5q-44 31 -100 31q-42 0 -71 -12.5t-46.5 -36.5t-25 -57.5t-7.5 -75.5zM334 -104q0 -21 -8 -44.5t-20 -43.5t-25 -33t-23 -13 q-8 0 -13.5 4t-5.5 13q0 8 4 15t10 14t12.5 14.5t10.5 18.5q-21 2 -35 17.5t-14 37.5q0 23 15.5 38t38.5 15q22 0 37.5 -15.5t15.5 -37.5z"></glyph><glyph glyph-name="uni0123" unicode="ģ" d="M231 514q35 0 68.5 -8.5t62.5 -25.5q17 31 40 44.5t40 13.5q16 0 26.5 -10t10.5 -25q0 -8 -2.5 -13t-4.5 -7q-14 -14 -24.5 -24t-17 -20t-9.5 -22.5t-3 -30.5v-62q0 -38 -11.5 -71t-34 -57t-56.5 -38t-79 -14q-46 0 -79 13q-7 -13 -9.5 -25t-2.5 -21q0 -13 5.5 -21.5 t13.5 -13.5t17.5 -7t17.5 -2h42q43 0 79.5 -9t63.5 -27t42 -46t15 -65q0 -38 -15.5 -68t-43 -51t-65 -32.5t-81.5 -11.5q-42 0 -77.5 10.5t-61 30t-39.5 48.5t-14 65q0 37 13.5 66t39.5 54q-17 17 -23.5 38.5t-6.5 38.5q0 18 7.5 40t30.5 42q-54 51 -54 141q0 39 11 72.5 t33.5 58t56 38.5t78.5 14zM340 385q0 8 0.5 15t1.5 14q-23 14 -48 22t-53 8q-56 0 -83.5 -29.5t-27.5 -85.5q0 -51 25 -82t82 -31q54 0 78.5 28t24.5 78v63zM202 -5q-23 0 -45 5q-34 -30 -34 -78q0 -45 29 -69t87 -24q54 0 89.5 22t35.5 67q0 77 -120 77h-42zM194 637 q0 21 8 44.5t20 43.5t25 33t23 13q8 0 13.5 -4t5.5 -13q0 -8 -4 -15t-10 -14t-12 -14.5t-11 -18.5q21 -2 35 -17.5t14 -37.5q0 -23 -15.5 -38t-38.5 -15q-22 0 -37.5 15.5t-15.5 37.5z"></glyph><glyph glyph-name="Hcircumflex" unicode="Ĥ" d="M506 31q0 -17 -11.5 -29t-28.5 -12q-16 0 -28 12t-12 29v283h-273v-283q0 -17 -11.5 -29t-28.5 -12t-28.5 12t-11.5 29v644q0 16 11.5 28t28.5 12t28.5 -12t11.5 -28v-283h273v283q0 16 12 28t28 12t28 -12t12 -28v-644zM290 836l-75 -61q-2 -3 -8 -4.5t-11 -1.5 q-10 0 -17.5 8t-7.5 18q0 8 5 15.5t13 14.5l79 67q5 3 10 5.5t12 2.5t12 -2.5t10 -5.5l79 -67q8 -7 13 -14.5t5 -15.5q0 -10 -7.5 -18t-18.5 -8q-4 0 -10 1.5t-8 4.5z"></glyph><glyph glyph-name="hcircumflex" unicode="ĥ" d="M151 31q0 -17 -10.5 -28t-27.5 -11t-28 11t-11 28v661q0 15 10.5 27t27.5 12t28 -11t11 -28v-220q26 20 57.5 31t67.5 11q80 0 118 -46.5t38 -119.5v-317q0 -17 -11.5 -28t-27.5 -11q-17 0 -28 11t-11 28v316q0 46 -20 70t-67 24q-31 0 -62.5 -14t-53.5 -43v-353z M290 836l-75 -61q-2 -3 -8 -4.5t-11 -1.5q-10 0 -17.5 8t-7.5 18q0 8 5 15.5t13 14.5l79 67q5 3 10 5.5t12 2.5t12 -2.5t10 -5.5l79 -67q8 -7 13 -14.5t5 -15.5q0 -10 -7.5 -18t-18.5 -8q-4 0 -10 1.5t-8 4.5z"></glyph><glyph glyph-name="Itilde" unicode="Ĩ" d="M73 30v645q0 16 11.5 28t28.5 12t28.5 -12t11.5 -28v-645q0 -16 -11.5 -28t-28.5 -12t-28.5 12t-11.5 28zM252 850q0 -13 -7.5 -24t-19.5 -19t-26.5 -12.5t-28.5 -5.5q-16 0 -29.5 4.5t-25.5 10.5t-23 11t-22 6q-14 0 -22.5 -4t-15 -9.5t-12.5 -9.5t-14 -4 q-11 0 -19.5 7.5t-10.5 19.5q0 28 25 46.5t57 18.5q16 0 29 -4.5t25 -10.5t23 -11t23 -6q14 0 22.5 4t14.5 9t12 9.5t15 5.5q12 0 21 -9t9 -23z"></glyph><glyph glyph-name="itilde" unicode="ĩ" d="M161 31q0 -17 -11 -28t-28 -11t-28 11t-11 28v441q0 16 11 27.5t28 11.5t28 -11.5t11 -27.5v-441zM261 650q0 -13 -7.5 -24t-19.5 -19t-26.5 -12.5t-28.5 -5.5q-16 0 -29.5 4.5t-25.5 10.5t-23 11t-22 6q-14 0 -22.5 -4t-15 -9.5t-12.5 -9.5t-14 -4q-11 0 -19.5 7.5 t-10.5 19.5q0 28 25 46.5t57 18.5q16 0 29 -4.5t25 -10.5t23 -11t23 -6q14 0 22.5 4t14.5 9t12 9.5t15 5.5q12 0 21 -9t9 -23z"></glyph><glyph glyph-name="Imacron" unicode="Ī" d="M73 30v645q0 16 11.5 28t28.5 12t28.5 -12t11.5 -28v-645q0 -16 -11.5 -28t-28.5 -12t-28.5 12t-11.5 28zM275 837q0 -15 -10.5 -25.5t-25.5 -10.5h-249q-16 0 -26.5 10.5t-10.5 25.5t10.5 26t26.5 11h249q15 0 25.5 -11t10.5 -26z"></glyph><glyph glyph-name="imacron" unicode="ī" d="M161 31q0 -17 -11 -28t-28 -11t-28 11t-11 28v441q0 16 11 27.5t28 11.5t28 -11.5t11 -27.5v-441zM284 637q0 -15 -10.5 -25.5t-25.5 -10.5h-249q-16 0 -26.5 10.5t-10.5 25.5t10.5 26t26.5 11h249q15 0 25.5 -11t10.5 -26z"></glyph><glyph glyph-name="Ibreve" unicode="Ĭ" d="M73 30v645q0 16 11.5 28t28.5 12t28.5 -12t11.5 -28v-645q0 -16 -11.5 -28t-28.5 -12t-28.5 12t-11.5 28zM114 833q17 0 33 9t32 32q5 8 13.5 12t16.5 4q13 0 22 -8.5t4 -28.5t-18 -35.5t-30.5 -25.5t-36.5 -15t-36 -5t-36 5t-36.5 15t-31 25.5t-18.5 35.5t4.5 28.5 t22.5 8.5q8 0 16.5 -4t13.5 -12q16 -23 32 -32t33 -9z"></glyph><glyph glyph-name="ibreve" unicode="ĭ" d="M161 31q0 -17 -11 -28t-28 -11t-28 11t-11 28v441q0 16 11 27.5t28 11.5t28 -11.5t11 -27.5v-441zM123 633q17 0 33 9t32 32q5 8 13.5 12t16.5 4q13 0 22 -8.5t4 -28.5t-18 -35.5t-30.5 -25.5t-36.5 -15t-36 -5t-36 5t-36.5 15t-31 25.5t-18.5 35.5t4.5 28.5t22.5 8.5 q8 0 16.5 -4t13.5 -12q16 -23 32 -32t33 -9z"></glyph><glyph glyph-name="Iogonek" unicode="Į" d="M221 -156q0 -13 -7.5 -20.5t-19 -11.5t-25 -5.5t-25.5 -1.5q-47 0 -75 21.5t-28 68.5q0 27 11 55t31 53q-10 12 -10 27v645q0 16 11.5 28t28.5 12t28.5 -12t11.5 -28v-645q0 -9 -4.5 -16.5t-9.5 -13.5q-14 -18 -22.5 -43t-8.5 -46q0 -19 10.5 -32t33.5 -13q18 0 26 2.5 t16 2.5q11 0 19 -8t8 -19z"></glyph><glyph glyph-name="iogonek" unicode="į" d="M228 -156q0 -13 -7.5 -20.5t-19 -11.5t-25 -5.5t-25.5 -1.5q-47 0 -75 21.5t-28 68.5q0 28 12 56.5t32 53.5q-9 11 -9 26v441q0 16 11 27.5t28 11.5t28 -11.5t11 -27.5v-441q0 -10 -5 -17l-10 -14q-14 -17 -22.5 -42.5t-8.5 -46.5q0 -19 10.5 -32t33.5 -13q18 0 26 2.5 t16 2.5q11 0 19 -8t8 -19zM170 668q0 -20 -14 -34t-34 -14t-34 14t-14 34t14 34t34 14t34 -14t14 -34z"></glyph><glyph glyph-name="Idotaccent" unicode="İ" d="M73 30v645q0 16 11.5 28t28.5 12t28.5 -12t11.5 -28v-645q0 -16 -11.5 -28t-28.5 -12t-28.5 12t-11.5 28zM161 839q0 -20 -14 -34.5t-34 -14.5t-33 14.5t-13 34.5q0 19 13 33t33 14t34 -13.5t14 -33.5z"></glyph><glyph glyph-name="dotlessi" unicode="ı" d="M161 31q0 -17 -11 -28t-28 -11t-28 11t-11 28v441q0 16 11 27.5t28 11.5t28 -11.5t11 -27.5v-441z"></glyph><glyph glyph-name="Jcircumflex" unicode="Ĵ" d="M312 675v-450q0 -55 -10 -98.5t-33 -74t-62 -46.5t-97 -16q-10 0 -25 1t-28 5.5t-22.5 13.5t-9.5 25q0 19 12 29t23 10q8 0 23 -3.5t38 -3.5q35 0 56.5 11t33.5 31.5t16.5 50t4.5 65.5v450q0 17 11.5 28.5t28.5 11.5q16 0 28 -12t12 -28zM270 836l-75 -61q-2 -3 -8 -4.5 t-11 -1.5q-10 0 -17.5 8t-7.5 18q0 8 5 15.5t13 14.5l79 67q5 3 10 5.5t12 2.5t12 -2.5t10 -5.5l79 -67q8 -7 13 -14.5t5 -15.5q0 -10 -7.5 -18t-18.5 -8q-4 0 -10 1.5t-8 4.5z"></glyph><glyph glyph-name="jcircumflex" unicode="ĵ" d="M161 472v-487q0 -79 -36.5 -128t-104.5 -59q-6 -1 -10 -1h-9q-27 0 -33 26q-5 20 7 30.5t23 12.5q41 9 63 34.5t22 80.5v491q0 16 11 27.5t28 11.5t28 -11.5t11 -27.5zM123 636l-75 -61q-2 -3 -8 -4.5t-11 -1.5q-10 0 -17.5 8t-7.5 18q0 8 5 15.5t13 14.5l79 67 q5 3 10 5.5t12 2.5t12 -2.5t10 -5.5l79 -67q8 -7 13 -14.5t5 -15.5q0 -10 -7.5 -18t-18.5 -8q-4 0 -10 1.5t-8 4.5z"></glyph><glyph glyph-name="uni0136" unicode="Ķ" d="M420 9l-217 315l-50 -61v-232q0 -17 -11.5 -29t-28.5 -12t-28.5 12t-11.5 29v644q0 16 11.5 28t28.5 12t28.5 -12t11.5 -28v-291l253 312q5 8 15 13.5t21 5.5t24 -9.5t11 -30.5q-1 -14 -9 -25l-215 -264l233 -334q5 -9 5 -19q0 -14 -7.5 -28.5t-29.5 -14.5q-21 0 -34 19z M341 -104q0 -21 -8 -44.5t-20 -43.5t-25 -33t-23 -13q-8 0 -13.5 4t-5.5 13q0 8 4 15t10 14t12.5 14.5t10.5 18.5q-21 2 -35 17.5t-14 37.5q0 23 15.5 38t38.5 15q22 0 37.5 -15.5t15.5 -37.5z"></glyph><glyph glyph-name="uni0137" unicode="ķ" d="M152 686v-373l181 188q4 5 10.5 7t13.5 2q16 0 26.5 -10.5t10.5 -25.5q0 -16 -10 -26l-147 -150l169 -250q3 -5 4.5 -11.5t1.5 -11.5q-1 -15 -11.5 -24t-25.5 -9q-20 0 -32 19l-155 236l-36 -37v-179q0 -17 -11 -28t-28 -11t-28 11t-11 28v655q0 17 11 28t28 11t28 -11 t11 -28zM300 -104q0 -21 -8 -44.5t-20 -43.5t-25 -33t-23 -13q-8 0 -13.5 4t-5.5 13q0 8 4 15t10 14t12.5 14.5t10.5 18.5q-21 2 -35 17.5t-14 37.5q0 23 15.5 38t38.5 15q22 0 37.5 -15.5t15.5 -37.5z"></glyph><glyph glyph-name="Lacute" unicode="Ĺ" d="M438 39q0 -17 -11 -28t-27 -11h-282q-18 0 -31.5 13t-13.5 32v630q0 16 11.5 28t28.5 12t28.5 -12t11.5 -28v-598h247q15 0 26.5 -11t11.5 -27zM94 824l78 81q11 10 17 16.5t20 6.5q11 0 21 -9.5t10 -23.5q0 -4 -1 -8.5t-4 -8.5l-81 -86q-9 -8 -15.5 -13t-16.5 -5 q-14 0 -23.5 9.5t-9.5 25.5q0 9 5 15z"></glyph><glyph glyph-name="lacute" unicode="ĺ" d="M74 94v592q0 16 11 27.5t28 11.5t28 -11t11 -28v-592q0 -17 2.5 -27.5t11.5 -19.5q2 -3 4.5 -8t2.5 -11q0 -15 -10.5 -25.5t-25.5 -10.5q-9 0 -20 3.5t-20.5 14t-16 30.5t-6.5 54zM86 810l78 81q11 10 17 16.5t20 6.5q11 0 21 -9.5t10 -23.5q0 -4 -1 -8.5t-4 -8.5 l-81 -86q-9 -8 -15.5 -13t-16.5 -5q-14 0 -23.5 9.5t-9.5 25.5q0 9 5 15z"></glyph><glyph glyph-name="uni013B" unicode="Ļ" d="M438 39q0 -17 -11 -28t-27 -11h-282q-18 0 -31.5 13t-13.5 32v630q0 16 11.5 28t28.5 12t28.5 -12t11.5 -28v-598h247q15 0 26.5 -11t11.5 -27zM323 -104q0 -21 -8 -44.5t-20 -43.5t-25 -33t-23 -13q-8 0 -13.5 4t-5.5 13q0 8 4 15t10 14t12.5 14.5t10.5 18.5 q-21 2 -35 17.5t-14 37.5q0 23 15.5 38t38.5 15q22 0 37.5 -15.5t15.5 -37.5z"></glyph><glyph glyph-name="uni013C" unicode="ļ" d="M74 94v592q0 16 11 27.5t28 11.5t28 -11t11 -28v-592q0 -17 2.5 -27.5t11.5 -19.5q2 -3 4.5 -8t2.5 -11q0 -15 -10.5 -25.5t-25.5 -10.5q-9 0 -20 3.5t-20.5 14t-16 30.5t-6.5 54zM168 -104q0 -21 -8 -44.5t-20 -43.5t-25 -33t-23 -13q-8 0 -13.5 4t-5.5 13q0 8 4 15 t10 14t12.5 14.5t10.5 18.5q-21 2 -35 17.5t-14 37.5q0 23 15.5 38t38.5 15q22 0 37.5 -15.5t15.5 -37.5z"></glyph><glyph glyph-name="Lcaron" unicode="Ľ" d="M438 39q0 -17 -11 -28t-27 -11h-282q-18 0 -31.5 13t-13.5 32v630q0 16 11.5 28t28.5 12t28.5 -12t11.5 -28v-598h247q15 0 26.5 -11t11.5 -27zM397 672q0 -25 -8 -54t-20 -53.5t-25 -40.5t-23 -16q-8 0 -13.5 3.5t-5.5 13.5q0 12 4 22t10 20.5t12.5 22t10.5 27.5 q-21 2 -35 17.5t-14 37.5t15.5 37.5t38.5 15.5q22 0 37.5 -15.5t15.5 -37.5z"></glyph><glyph glyph-name="lcaron" unicode="ľ" d="M74 94v592q0 16 11 27.5t28 11.5t28 -11t11 -28v-592q0 -17 2.5 -27.5t11.5 -19.5q2 -3 4.5 -8t2.5 -11q0 -15 -10.5 -25.5t-25.5 -10.5q-9 0 -20 3.5t-20.5 14t-16 30.5t-6.5 54zM334 672q0 -25 -8 -54t-20 -53.5t-25 -40.5t-23 -16q-8 0 -13.5 3.5t-5.5 13.5q0 12 4 22 t10 20.5t12.5 22t10.5 27.5q-21 2 -35 17.5t-14 37.5t15.5 37.5t38.5 15.5q22 0 37.5 -15.5t15.5 -37.5z"></glyph><glyph glyph-name="Lslash" unicode="Ł" d="M484 39q0 -17 -11 -28t-27 -11h-282q-18 0 -31.5 13t-13.5 32v247l-40 -26q-5 -4 -11 -7.5t-12 -3.5q-16 0 -28.5 9t-12.5 29q0 19 17 30l87 57v295q0 16 11.5 28t28.5 12t28.5 -12t11.5 -28v-243l54 36q7 5 13 7.5t16 2.5q11 0 20 -7t13 -18q2 -8 2 -12q0 -18 -16 -29 l-102 -67v-268h247q15 0 26.5 -11t11.5 -27z"></glyph><glyph glyph-name="lslash" unicode="ł" d="M120 94v199l-41 -27q-5 -4 -11 -7.5t-12 -3.5q-16 0 -28.5 9t-12.5 29q0 19 17 30l88 57v306q0 16 11 27.5t28 11.5t28 -11t11 -28v-254l55 36q7 5 13 7.5t16 2.5q11 0 20 -7t13 -18q2 -8 2 -12q0 -18 -16 -29l-103 -68v-250q0 -17 2.5 -27.5t11.5 -19.5q2 -3 4.5 -8 t2.5 -11q0 -15 -10.5 -25.5t-25.5 -10.5q-9 0 -20 3.5t-20.5 14t-16 30.5t-6.5 54z"></glyph><glyph glyph-name="Nacute" unicode="Ń" d="M482 -10q-12 0 -23.5 6t-17.5 17l-288 533v-515q0 -17 -12 -29t-29 -12t-28 12t-11 29v640q0 19 12 31.5t31 12.5q13 0 24.5 -6.5t17.5 -17.5l288 -532v515q0 17 12 29t29 12t28 -12t11 -29v-640q0 -18 -12 -31t-32 -13zM270 824l78 81q11 10 17 16.5t20 6.5 q11 0 21 -9.5t10 -23.5q0 -4 -1 -8.5t-4 -8.5l-81 -86q-9 -8 -15.5 -13t-16.5 -5q-14 0 -23.5 9.5t-9.5 25.5q0 9 5 15z"></glyph><glyph glyph-name="nacute" unicode="ń" d="M155 371v-340q0 -16 -9.5 -27t-29.5 -11t-29.5 11t-9.5 27v340q0 21 -1.5 32t-4 18t-6 10.5t-6.5 9.5q-2 3 -4.5 7.5t-2.5 12.5q0 15 10.5 25t26.5 10q14 0 24 -8t18 -21q33 23 70 34t73 11q80 0 119.5 -52t39.5 -137v-292q0 -16 -10 -27t-29 -11t-29 11t-10 27v292 q0 57 -23.5 88t-68.5 31q-29 0 -57 -11t-54 -31q3 -16 3 -29zM184 624l78 81q11 10 17 16.5t20 6.5q11 0 21 -9.5t10 -23.5q0 -4 -1 -8.5t-4 -8.5l-81 -86q-9 -8 -15.5 -13t-16.5 -5q-14 0 -23.5 9.5t-9.5 25.5q0 9 5 15z"></glyph><glyph glyph-name="uni0145" unicode="Ņ" d="M482 -10q-12 0 -23.5 6t-17.5 17l-288 533v-515q0 -17 -12 -29t-29 -12t-28 12t-11 29v640q0 19 12 31.5t31 12.5q13 0 24.5 -6.5t17.5 -17.5l288 -532v515q0 17 12 29t29 12t28 -12t11 -29v-640q0 -18 -12 -31t-32 -13zM354 -104q0 -21 -8 -44.5t-20 -43.5t-25 -33 t-23 -13q-8 0 -13.5 4t-5.5 13q0 8 4 15t10 14t12.5 14.5t10.5 18.5q-21 2 -35 17.5t-14 37.5q0 23 15.5 38t38.5 15q22 0 37.5 -15.5t15.5 -37.5z"></glyph><glyph glyph-name="uni0146" unicode="ņ" d="M155 371v-340q0 -16 -9.5 -27t-29.5 -11t-29.5 11t-9.5 27v340q0 21 -1.5 32t-4 18t-6 10.5t-6.5 9.5q-2 3 -4.5 7.5t-2.5 12.5q0 15 10.5 25t26.5 10q14 0 24 -8t18 -21q33 23 70 34t73 11q80 0 119.5 -52t39.5 -137v-292q0 -16 -10 -27t-29 -11t-29 11t-10 27v292 q0 57 -23.5 88t-68.5 31q-29 0 -57 -11t-54 -31q3 -16 3 -29zM308 -104q0 -21 -8 -44.5t-20 -43.5t-25 -33t-23 -13q-8 0 -13.5 4t-5.5 13q0 8 4 15t10 14t12.5 14.5t10.5 18.5q-21 2 -35 17.5t-14 37.5q0 23 15.5 38t38.5 15q22 0 37.5 -15.5t15.5 -37.5z"></glyph><glyph glyph-name="Ncaron" unicode="Ň" d="M482 -10q-12 0 -23.5 6t-17.5 17l-288 533v-515q0 -17 -12 -29t-29 -12t-28 12t-11 29v640q0 19 12 31.5t31 12.5q13 0 24.5 -6.5t17.5 -17.5l288 -532v515q0 17 12 29t29 12t28 -12t11 -29v-640q0 -18 -12 -31t-32 -13zM300 762q-13 0 -24 9l-88 73q-10 8 -15 15.5 t-5 18.5q0 13 9.5 21t21.5 8q8 0 18 -7l83 -67l83 67q11 7 18 7q12 0 21.5 -8t9.5 -21q0 -11 -5 -18.5t-15 -15.5l-88 -73q-11 -9 -24 -9z"></glyph><glyph glyph-name="ncaron" unicode="ň" d="M155 371v-340q0 -16 -9.5 -27t-29.5 -11t-29.5 11t-9.5 27v340q0 21 -1.5 32t-4 18t-6 10.5t-6.5 9.5q-2 3 -4.5 7.5t-2.5 12.5q0 15 10.5 25t26.5 10q14 0 24 -8t18 -21q33 23 70 34t73 11q80 0 119.5 -52t39.5 -137v-292q0 -16 -10 -27t-29 -11t-29 11t-10 27v292 q0 57 -23.5 88t-68.5 31q-29 0 -57 -11t-54 -31q3 -16 3 -29zM254 562q-13 0 -24 9l-88 73q-10 8 -15 15.5t-5 18.5q0 13 9.5 21t21.5 8q8 0 18 -7l83 -67l83 67q11 7 18 7q12 0 21.5 -8t9.5 -21q0 -11 -5 -18.5t-15 -15.5l-88 -73q-11 -9 -24 -9z"></glyph><glyph glyph-name="Omacron" unicode="Ō" d="M275 -10q-57 0 -100.5 20t-72 54.5t-43 81.5t-14.5 100v214q0 52 12.5 98.5t40.5 81t71.5 55t105.5 20.5t105.5 -20.5t71.5 -55t40.5 -81t12.5 -98.5v-214q0 -53 -14.5 -100t-43 -81.5t-72 -54.5t-100.5 -20zM275 637q-41 0 -69.5 -12.5t-46.5 -36t-26 -56t-8 -72.5v-214 q0 -79 36.5 -128.5t113.5 -49.5t113.5 49.5t36.5 128.5v214q0 40 -8 72.5t-26 56t-46.5 36t-69.5 12.5zM436 837q0 -15 -10.5 -25.5t-25.5 -10.5h-249q-16 0 -26.5 10.5t-10.5 25.5t10.5 26t26.5 11h249q15 0 25.5 -11t10.5 -26z"></glyph><glyph glyph-name="omacron" unicode="ō" d="M232 -8q-46 0 -81 14t-58.5 38t-35.5 56.5t-12 69.5v167q0 38 12 70.5t35.5 56.5t58.5 37.5t81 13.5t81 -13.5t58.5 -37.5t35.5 -56.5t12 -70.5v-167q0 -37 -12 -69.5t-35.5 -56.5t-58.5 -38t-81 -14zM232 64q54 0 81.5 28t27.5 78v168q0 49 -27.5 77t-81.5 28t-81.5 -28 t-27.5 -77v-168q0 -50 27.5 -78t81.5 -28zM393 637q0 -15 -10.5 -25.5t-25.5 -10.5h-249q-16 0 -26.5 10.5t-10.5 25.5t10.5 26t26.5 11h249q15 0 25.5 -11t10.5 -26z"></glyph><glyph glyph-name="Obreve" unicode="Ŏ" d="M275 -10q-57 0 -100.5 20t-72 54.5t-43 81.5t-14.5 100v214q0 52 12.5 98.5t40.5 81t71.5 55t105.5 20.5t105.5 -20.5t71.5 -55t40.5 -81t12.5 -98.5v-214q0 -53 -14.5 -100t-43 -81.5t-72 -54.5t-100.5 -20zM275 637q-41 0 -69.5 -12.5t-46.5 -36t-26 -56t-8 -72.5v-214 q0 -79 36.5 -128.5t113.5 -49.5t113.5 49.5t36.5 128.5v214q0 40 -8 72.5t-26 56t-46.5 36t-69.5 12.5zM275 833q17 0 33 9t32 32q5 8 13.5 12t16.5 4q13 0 22 -8.5t4 -28.5t-18 -35.5t-30.5 -25.5t-36.5 -15t-36 -5t-36 5t-36.5 15t-31 25.5t-18.5 35.5t4.5 28.5t22.5 8.5 q8 0 16.5 -4t13.5 -12q16 -23 32 -32t33 -9z"></glyph><glyph glyph-name="obreve" unicode="ŏ" d="M232 -8q-46 0 -81 14t-58.5 38t-35.5 56.5t-12 69.5v167q0 38 12 70.5t35.5 56.5t58.5 37.5t81 13.5t81 -13.5t58.5 -37.5t35.5 -56.5t12 -70.5v-167q0 -37 -12 -69.5t-35.5 -56.5t-58.5 -38t-81 -14zM232 64q54 0 81.5 28t27.5 78v168q0 49 -27.5 77t-81.5 28t-81.5 -28 t-27.5 -77v-168q0 -50 27.5 -78t81.5 -28zM232 633q17 0 33 9t32 32q5 8 13.5 12t16.5 4q13 0 22 -8.5t4 -28.5t-18 -35.5t-30.5 -25.5t-36.5 -15t-36 -5t-36 5t-36.5 15t-31 25.5t-18.5 35.5t4.5 28.5t22.5 8.5q8 0 16.5 -4t13.5 -12q16 -23 32 -32t33 -9z"></glyph><glyph glyph-name="Ohungarumlaut" unicode="Ő" d="M275 -10q-57 0 -100.5 20t-72 54.5t-43 81.5t-14.5 100v214q0 52 12.5 98.5t40.5 81t71.5 55t105.5 20.5t105.5 -20.5t71.5 -55t40.5 -81t12.5 -98.5v-214q0 -53 -14.5 -100t-43 -81.5t-72 -54.5t-100.5 -20zM275 637q-41 0 -69.5 -12.5t-46.5 -36t-26 -56t-8 -72.5v-214 q0 -79 36.5 -128.5t113.5 -49.5t113.5 49.5t36.5 128.5v214q0 40 -8 72.5t-26 56t-46.5 36t-69.5 12.5zM171 812l63 94q8 11 14.5 20t21.5 9q13 0 23 -10.5t10 -24.5q0 -4 -2 -10l-65 -99q-8 -11 -15 -17.5t-18 -6.5q-14 0 -24 9.5t-10 23.5q0 8 2 12zM306 812l63 94 q7 11 14 20t21 9q11 0 23 -10t12 -23q0 -6 -3 -12l-65 -99q-8 -11 -14.5 -17.5t-18.5 -6.5q-14 0 -24 9.5t-10 23.5q0 8 2 12z"></glyph><glyph glyph-name="ohungarumlaut" unicode="ő" d="M232 -8q-46 0 -81 14t-58.5 38t-35.5 56.5t-12 69.5v167q0 38 12 70.5t35.5 56.5t58.5 37.5t81 13.5t81 -13.5t58.5 -37.5t35.5 -56.5t12 -70.5v-167q0 -37 -12 -69.5t-35.5 -56.5t-58.5 -38t-81 -14zM232 64q54 0 81.5 28t27.5 78v168q0 49 -27.5 77t-81.5 28t-81.5 -28 t-27.5 -77v-168q0 -50 27.5 -78t81.5 -28zM135 612l63 94q8 11 14.5 20t21.5 9q13 0 23 -10.5t10 -24.5q0 -4 -2 -10l-65 -99q-8 -11 -15 -17.5t-18 -6.5q-14 0 -24 9.5t-10 23.5q0 8 2 12zM270 612l63 94q7 11 14 20t21 9q11 0 23 -10t12 -23q0 -6 -3 -12l-65 -99 q-8 -11 -14.5 -17.5t-18.5 -6.5q-14 0 -24 9.5t-10 23.5q0 8 2 12z"></glyph><glyph glyph-name="OE" unicode="Œ" d="M723 41q0 -17 -11.5 -29t-28.5 -12h-235q-25 0 -43.5 9.5t-19.5 35.5q-24 -26 -56 -40.5t-74 -14.5q-52 0 -91.5 18.5t-65.5 50.5t-39.5 75t-13.5 92v254q0 48 11.5 91t37 75t65 50.5t96.5 18.5q43 0 75 -13.5t55 -36.5q3 15 15.5 27.5t31.5 12.5h241q17 0 28.5 -11.5 t11.5 -28.5t-11.5 -27.5t-28.5 -10.5h-208v-234h189q15 0 27 -11t12 -28t-11 -28t-28 -11h-189v-237h218q16 0 28 -11t12 -26zM255 637q-72 0 -101 -43t-29 -114v-254q0 -70 31.5 -114t98.5 -44t98.5 44t31.5 114v254q0 71 -29 114t-101 43z"></glyph><glyph glyph-name="oe" unicode="œ" d="M228 -8q-43 0 -77.5 14t-57.5 38t-35.5 56.5t-12.5 69.5v167q0 37 12.5 69.5t35.5 56.5t57.5 38t77.5 14q57 0 94 -23t57 -62q18 38 55 61t94 23q79 0 120.5 -44t41.5 -119q0 -69 -39.5 -108.5t-129.5 -39.5q-22 0 -49 2t-53 7v-59q0 -42 27.5 -67t81.5 -25q32 0 55 8 t49 20q2 1 5.5 2t8.5 1q15 0 25 -10.5t10 -24.5q0 -18 -18 -30.5t-43 -20t-52 -11t-46 -3.5q-54 0 -90 22.5t-54 60.5q-19 -38 -56.5 -60.5t-93.5 -22.5zM232 64q54 0 81.5 28t27.5 78v168q0 49 -27.5 77t-81.5 28t-81.5 -28t-27.5 -77v-168q0 -50 27.5 -78t81.5 -28z M613 351q0 49 -23.5 70.5t-67.5 21.5q-49 0 -76 -24.5t-27 -66.5v-76q28 -3 59 -5t46 -2q29 0 46 7t27 18.5t13 26.5t3 30z"></glyph><glyph glyph-name="Racute" unicode="Ŕ" d="M511 505q0 -80 -41.5 -128t-113.5 -62l160 -263q5 -10 5 -23q0 -16 -15.5 -27t-27.5 -11q-22 0 -33 19l-177 300h-115v-278q0 -17 -12 -29.5t-29 -12.5q-16 0 -27.5 12.5t-11.5 29.5v625q0 20 13.5 34t32.5 14h174q62 0 103.5 -17.5t67 -45.5t36.5 -64t11 -73zM431 505 q0 22 -6 44t-21.5 39t-43 28t-71.5 11h-136v-240h142q66 0 101 30t35 88zM217 824l78 81q11 10 17 16.5t20 6.5q11 0 21 -9.5t10 -23.5q0 -4 -1 -8.5t-4 -8.5l-81 -86q-9 -8 -15.5 -13t-16.5 -5q-14 0 -23.5 9.5t-9.5 25.5q0 9 5 15z"></glyph><glyph glyph-name="racute" unicode="ŕ" d="M155 369v-338q0 -17 -11 -28t-28 -11t-28 11t-11 28v338q0 25 -3.5 40.5t-12.5 29.5q-3 5 -5 9t-2 11q0 16 11 25.5t25 9.5q12 0 22 -7.5t18 -19.5q32 20 70 31.5t67 11.5q30 0 41 -11t11 -27q0 -19 -11.5 -30t-27.5 -10q-31 1 -60 -3.5t-67 -32.5q1 -8 1.5 -14.5 t0.5 -12.5zM162 624l78 81q11 10 17 16.5t20 6.5q11 0 21 -9.5t10 -23.5q0 -4 -1 -8.5t-4 -8.5l-81 -86q-9 -8 -15.5 -13t-16.5 -5q-14 0 -23.5 9.5t-9.5 25.5q0 9 5 15z"></glyph><glyph glyph-name="uni0156" unicode="Ŗ" d="M511 505q0 -80 -41.5 -128t-113.5 -62l160 -263q5 -10 5 -23q0 -16 -15.5 -27t-27.5 -11q-22 0 -33 19l-177 300h-115v-278q0 -17 -12 -29.5t-29 -12.5q-16 0 -27.5 12.5t-11.5 29.5v625q0 20 13.5 34t32.5 14h174q62 0 103.5 -17.5t67 -45.5t36.5 -64t11 -73zM431 505 q0 22 -6 44t-21.5 39t-43 28t-71.5 11h-136v-240h142q66 0 101 30t35 88zM341 -104q0 -21 -8 -44.5t-20 -43.5t-25 -33t-23 -13q-8 0 -13.5 4t-5.5 13q0 8 4 15t10 14t12.5 14.5t10.5 18.5q-21 2 -35 17.5t-14 37.5q0 23 15.5 38t38.5 15q22 0 37.5 -15.5t15.5 -37.5z"></glyph><glyph glyph-name="uni0157" unicode="ŗ" d="M155 369v-338q0 -17 -11 -28t-28 -11t-28 11t-11 28v338q0 25 -3.5 40.5t-12.5 29.5q-3 5 -5 9t-2 11q0 16 11 25.5t25 9.5q12 0 22 -7.5t18 -19.5q32 20 70 31.5t67 11.5q30 0 41 -11t11 -27q0 -19 -11.5 -30t-27.5 -10q-31 1 -60 -3.5t-67 -32.5q1 -8 1.5 -14.5 t0.5 -12.5zM168 -104q0 -21 -8 -44.5t-20 -43.5t-25 -33t-23 -13q-8 0 -13.5 4t-5.5 13q0 8 4 15t10 14t12.5 14.5t10.5 18.5q-21 2 -35 17.5t-14 37.5q0 23 15.5 38t38.5 15q22 0 37.5 -15.5t15.5 -37.5z"></glyph><glyph glyph-name="Rcaron" unicode="Ř" d="M511 505q0 -80 -41.5 -128t-113.5 -62l160 -263q5 -10 5 -23q0 -16 -15.5 -27t-27.5 -11q-22 0 -33 19l-177 300h-115v-278q0 -17 -12 -29.5t-29 -12.5q-16 0 -27.5 12.5t-11.5 29.5v625q0 20 13.5 34t32.5 14h174q62 0 103.5 -17.5t67 -45.5t36.5 -64t11 -73zM431 505 q0 22 -6 44t-21.5 39t-43 28t-71.5 11h-136v-240h142q66 0 101 30t35 88zM287 762q-13 0 -24 9l-88 73q-10 8 -15 15.5t-5 18.5q0 13 9.5 21t21.5 8q8 0 18 -7l83 -67l83 67q11 7 18 7q12 0 21.5 -8t9.5 -21q0 -11 -5 -18.5t-15 -15.5l-88 -73q-11 -9 -24 -9z"></glyph><glyph glyph-name="rcaron" unicode="ř" d="M155 369v-338q0 -17 -11 -28t-28 -11t-28 11t-11 28v338q0 25 -3.5 40.5t-12.5 29.5q-3 5 -5 9t-2 11q0 16 11 25.5t25 9.5q12 0 22 -7.5t18 -19.5q32 20 70 31.5t67 11.5q30 0 41 -11t11 -27q0 -19 -11.5 -30t-27.5 -10q-31 1 -60 -3.5t-67 -32.5q1 -8 1.5 -14.5 t0.5 -12.5zM169 562q-13 0 -24 9l-88 73q-10 8 -15 15.5t-5 18.5q0 13 9.5 21t21.5 8q8 0 18 -7l83 -67l83 67q11 7 18 7q12 0 21.5 -8t9.5 -21q0 -11 -5 -18.5t-15 -15.5l-88 -73q-11 -9 -24 -9z"></glyph><glyph glyph-name="Sacute" unicode="Ś" d="M360 191q0 24 -5.5 41t-13.5 29t-18.5 19t-19.5 12q-36 19 -81 32t-85 34.5t-67.5 58.5t-27.5 103q0 91 54 143t148 52q19 0 48 -2.5t56.5 -10t47 -21t19.5 -34.5q0 -15 -10.5 -26.5t-29.5 -11.5q-12 0 -23 4.5t-25.5 9.5t-32.5 9.5t-44 4.5q-24 0 -46.5 -5.5t-40 -18 t-28 -34t-10.5 -54.5q0 -25 6 -42t14.5 -28.5t18.5 -18t19 -11.5q36 -19 81.5 -32t85 -34.5t67 -58t27.5 -102.5q0 -49 -16.5 -88t-45.5 -65.5t-69.5 -40.5t-87.5 -14q-24 0 -55.5 4t-60 13t-48.5 23t-20 34q0 15 10.5 27t25.5 12q11 0 24.5 -5.5t31.5 -12t41 -12t52 -5.5 q67 0 100.5 32t33.5 91zM218 824l78 81q11 10 17 16.5t20 6.5q11 0 21 -9.5t10 -23.5q0 -4 -1 -8.5t-4 -8.5l-81 -86q-9 -8 -15.5 -13t-16.5 -5q-14 0 -23.5 9.5t-9.5 25.5q0 9 5 15z"></glyph><glyph glyph-name="sacute" unicode="ś" d="M53 370q0 65 41 104.5t121 39.5q20 0 43 -3t43 -9.5t33.5 -17t13.5 -26.5q0 -14 -10 -25t-26 -11q-8 0 -18 5q-16 8 -32.5 13t-43.5 5q-89 0 -89 -70q0 -23 10.5 -37t36.5 -27t58 -23t60.5 -27.5t48 -45.5t19.5 -77q0 -68 -42 -107t-126 -39q-19 0 -44.5 2.5t-48 9 t-38.5 18t-16 28.5q0 13 9.5 24.5t27.5 11.5q5 0 6.5 -0.5t3.5 -1.5q21 -8 45.5 -15.5t54.5 -7.5q42 0 67 17.5t25 56.5q0 27 -11 40.5t-26 21.5q-24 13 -57.5 23t-64 27t-52.5 45.5t-22 77.5zM176 624l78 81q11 10 17 16.5t20 6.5q11 0 21 -9.5t10 -23.5q0 -4 -1 -8.5 t-4 -8.5l-81 -86q-9 -8 -15.5 -13t-16.5 -5q-14 0 -23.5 9.5t-9.5 25.5q0 9 5 15z"></glyph><glyph glyph-name="Scircumflex" unicode="Ŝ" d="M360 191q0 24 -5.5 41t-13.5 29t-18.5 19t-19.5 12q-36 19 -81 32t-85 34.5t-67.5 58.5t-27.5 103q0 91 54 143t148 52q19 0 48 -2.5t56.5 -10t47 -21t19.5 -34.5q0 -15 -10.5 -26.5t-29.5 -11.5q-12 0 -23 4.5t-25.5 9.5t-32.5 9.5t-44 4.5q-24 0 -46.5 -5.5t-40 -18 t-28 -34t-10.5 -54.5q0 -25 6 -42t14.5 -28.5t18.5 -18t19 -11.5q36 -19 81.5 -32t85 -34.5t67 -58t27.5 -102.5q0 -49 -16.5 -88t-45.5 -65.5t-69.5 -40.5t-87.5 -14q-24 0 -55.5 4t-60 13t-48.5 23t-20 34q0 15 10.5 27t25.5 12q11 0 24.5 -5.5t31.5 -12t41 -12t52 -5.5 q67 0 100.5 32t33.5 91zM243 836l-75 -61q-2 -3 -8 -4.5t-11 -1.5q-10 0 -17.5 8t-7.5 18q0 8 5 15.5t13 14.5l79 67q5 3 10 5.5t12 2.5t12 -2.5t10 -5.5l79 -67q8 -7 13 -14.5t5 -15.5q0 -10 -7.5 -18t-18.5 -8q-4 0 -10 1.5t-8 4.5z"></glyph><glyph glyph-name="scircumflex" unicode="ŝ" d="M53 370q0 65 41 104.5t121 39.5q20 0 43 -3t43 -9.5t33.5 -17t13.5 -26.5q0 -14 -10 -25t-26 -11q-8 0 -18 5q-16 8 -32.5 13t-43.5 5q-89 0 -89 -70q0 -23 10.5 -37t36.5 -27t58 -23t60.5 -27.5t48 -45.5t19.5 -77q0 -68 -42 -107t-126 -39q-19 0 -44.5 2.5t-48 9 t-38.5 18t-16 28.5q0 13 9.5 24.5t27.5 11.5q5 0 6.5 -0.5t3.5 -1.5q21 -8 45.5 -15.5t54.5 -7.5q42 0 67 17.5t25 56.5q0 27 -11 40.5t-26 21.5q-24 13 -57.5 23t-64 27t-52.5 45.5t-22 77.5zM203 636l-75 -61q-2 -3 -8 -4.5t-11 -1.5q-10 0 -17.5 8t-7.5 18q0 8 5 15.5 t13 14.5l79 67q5 3 10 5.5t12 2.5t12 -2.5t10 -5.5l79 -67q8 -7 13 -14.5t5 -15.5q0 -10 -7.5 -18t-18.5 -8q-4 0 -10 1.5t-8 4.5z"></glyph><glyph glyph-name="Scedilla" unicode="Ş" d="M359 -128q0 -18 -8.5 -35.5t-25.5 -29.5t-43.5 -17.5t-61.5 -0.5q-23 3 -40 16.5t-8 30.5q7 13 19 10t34 -8q35 -7 52 8.5t17 32.5q0 18 -15.5 26t-44.5 10q-23 2 -31.5 8t-5.5 24l7 44q-25 1 -53.5 5.5t-53 13.5t-40.5 22.5t-16 31.5q0 15 10.5 27t25.5 12 q11 0 24.5 -5.5t31.5 -12t41 -12t52 -5.5q67 0 100.5 32t33.5 91q0 24 -5.5 41t-13.5 29t-18.5 19t-19.5 12q-36 19 -81 32t-85 34.5t-67.5 58.5t-27.5 103q0 91 54 143t148 52q19 0 48 -2.5t56.5 -10t47 -21t19.5 -34.5q0 -15 -10.5 -26.5t-29.5 -11.5q-12 0 -23 4.5 t-25.5 9.5t-32.5 9.5t-44 4.5q-24 0 -46.5 -5.5t-40 -18t-28 -34t-10.5 -54.5q0 -25 6 -42t14.5 -28.5t18.5 -18t19 -11.5q36 -19 81.5 -32t85 -34.5t67 -58t27.5 -102.5q0 -46 -14 -82.5t-39.5 -62.5t-60 -41.5t-76.5 -19.5l-5 -32q62 -1 86 -25t24 -63z"></glyph><glyph glyph-name="scedilla" unicode="ş" d="M320 -128q0 -18 -8.5 -35.5t-25.5 -29.5t-43.5 -17.5t-61.5 -0.5q-23 3 -40 16.5t-8 30.5q7 13 19 10t34 -8q35 -7 52 8.5t17 32.5q0 18 -15.5 26t-44.5 10q-23 2 -31.5 8t-5.5 24l8 46q-19 1 -40.5 5t-38.5 10.5t-28.5 16.5t-11.5 25q0 13 9.5 24.5t27.5 11.5 q5 0 6.5 -0.5t3.5 -1.5q21 -8 45.5 -15.5t54.5 -7.5q42 0 67 17.5t25 56.5q0 27 -11 40.5t-26 21.5q-24 13 -57.5 23t-64 27t-52.5 45.5t-22 77.5q0 65 41 104.5t121 39.5q20 0 43 -3t43 -9.5t33.5 -17t13.5 -26.5q0 -14 -10 -25t-26 -11q-8 0 -18 5q-16 8 -32.5 13t-43.5 5 q-89 0 -89 -70q0 -23 10.5 -37t36.5 -27t58 -23t60.5 -27.5t48 -45.5t19.5 -77q0 -63 -37 -101.5t-110 -43.5l-5 -33q62 -1 86 -25t24 -63z"></glyph><glyph glyph-name="Scaron" unicode="Š" d="M360 191q0 24 -5.5 41t-13.5 29t-18.5 19t-19.5 12q-36 19 -81 32t-85 34.5t-67.5 58.5t-27.5 103q0 91 54 143t148 52q19 0 48 -2.5t56.5 -10t47 -21t19.5 -34.5q0 -15 -10.5 -26.5t-29.5 -11.5q-12 0 -23 4.5t-25.5 9.5t-32.5 9.5t-44 4.5q-24 0 -46.5 -5.5t-40 -18 t-28 -34t-10.5 -54.5q0 -25 6 -42t14.5 -28.5t18.5 -18t19 -11.5q36 -19 81.5 -32t85 -34.5t67 -58t27.5 -102.5q0 -49 -16.5 -88t-45.5 -65.5t-69.5 -40.5t-87.5 -14q-24 0 -55.5 4t-60 13t-48.5 23t-20 34q0 15 10.5 27t25.5 12q11 0 24.5 -5.5t31.5 -12t41 -12t52 -5.5 q67 0 100.5 32t33.5 91zM243 762q-13 0 -24 9l-88 73q-10 8 -15 15.5t-5 18.5q0 13 9.5 21t21.5 8q8 0 18 -7l83 -67l83 67q11 7 18 7q12 0 21.5 -8t9.5 -21q0 -11 -5 -18.5t-15 -15.5l-88 -73q-11 -9 -24 -9z"></glyph><glyph glyph-name="scaron" unicode="š" d="M53 370q0 65 41 104.5t121 39.5q20 0 43 -3t43 -9.5t33.5 -17t13.5 -26.5q0 -14 -10 -25t-26 -11q-8 0 -18 5q-16 8 -32.5 13t-43.5 5q-89 0 -89 -70q0 -23 10.5 -37t36.5 -27t58 -23t60.5 -27.5t48 -45.5t19.5 -77q0 -68 -42 -107t-126 -39q-19 0 -44.5 2.5t-48 9 t-38.5 18t-16 28.5q0 13 9.5 24.5t27.5 11.5q5 0 6.5 -0.5t3.5 -1.5q21 -8 45.5 -15.5t54.5 -7.5q42 0 67 17.5t25 56.5q0 27 -11 40.5t-26 21.5q-24 13 -57.5 23t-64 27t-52.5 45.5t-22 77.5zM203 562q-13 0 -24 9l-88 73q-10 8 -15 15.5t-5 18.5q0 13 9.5 21t21.5 8 q8 0 18 -7l83 -67l83 67q11 7 18 7q12 0 21.5 -8t9.5 -21q0 -11 -5 -18.5t-15 -15.5l-88 -73q-11 -9 -24 -9z"></glyph><glyph glyph-name="uni0162" unicode="Ţ" d="M378 -128q0 -18 -8.5 -35.5t-25.5 -29.5t-43.5 -17.5t-61.5 -0.5q-23 3 -40 16.5t-8 30.5q7 13 19 10t34 -8q35 -7 52 8.5t17 32.5q0 18 -15.5 26t-44.5 10q-23 2 -31.5 8t-5.5 24l8 47q-23 10 -23 36v597h-136q-17 0 -28.5 11.5t-11.5 27.5q0 13 11.5 26t28.5 13h352 q16 0 28.5 -11t12.5 -28q0 -16 -12 -27.5t-29 -11.5h-136v-597q0 -10 -5 -18l-8 -52q62 -1 86 -25t24 -63z"></glyph><glyph glyph-name="uni0163" unicode="ţ" d="M302 -128q0 -18 -8.5 -35.5t-25.5 -29.5t-43.5 -17.5t-61.5 -0.5q-23 3 -40 16.5t-8 30.5q7 13 19 10t34 -8q35 -7 52 8.5t17 32.5q0 18 -15.5 26t-44.5 10q-23 2 -31 8t-6 24q2 17 4 33.5t7 32.5q-45 22 -61 69t-16 121v418q0 16 10 27t29 11t29 -11t10 -27v-138h104 q15 0 25.5 -10.5t10.5 -26.5t-10.5 -26.5t-25.5 -10.5h-104v-199q0 -39 2.5 -65.5t11.5 -43.5t25 -24.5t43 -7.5q5 0 9.5 0.5t9.5 0.5q17 0 34.5 -6t17.5 -30q0 -26 -18 -32t-39 -6q-15 0 -28 1t-25 3q-6 -24 -3 -40q62 -1 86 -25t24 -63z"></glyph><glyph glyph-name="Tcaron" unicode="Ť" d="M201 30v597h-136q-17 0 -28.5 11.5t-11.5 27.5q0 13 11.5 26t28.5 13h352q16 0 28.5 -11t12.5 -28q0 -16 -12 -27.5t-29 -11.5h-136v-597q0 -16 -11.5 -28t-28.5 -12t-28.5 12t-11.5 28zM241 762q-13 0 -24 9l-88 73q-10 8 -15 15.5t-5 18.5q0 13 9.5 21t21.5 8 q8 0 18 -7l83 -67l83 67q11 7 18 7q12 0 21.5 -8t9.5 -21q0 -11 -5 -18.5t-15 -15.5l-88 -73q-11 -9 -24 -9z"></glyph><glyph glyph-name="tcaron" unicode="ť" d="M74 203v418q0 16 10 27t29 11t29 -11t10 -27v-138h104q15 0 25.5 -10.5t10.5 -26.5t-10.5 -26.5t-25.5 -10.5h-104v-199q0 -39 2.5 -65.5t11.5 -43.5t25 -24.5t43 -7.5q5 0 9.5 0.5t9.5 0.5q17 0 34.5 -6t17.5 -30q0 -26 -18 -32t-39 -6q-52 0 -86 13t-53.5 39t-27 64.5 t-7.5 90.5zM414 672q0 -25 -8 -54t-20 -53.5t-25 -40.5t-23 -16q-8 0 -13.5 3.5t-5.5 13.5q0 12 4 22t10 20.5t12.5 22t10.5 27.5q-21 2 -35 17.5t-14 37.5t15.5 37.5t38.5 15.5q22 0 37.5 -15.5t15.5 -37.5z"></glyph><glyph glyph-name="Utilde" unicode="Ũ" d="M507 230q0 -52 -15 -96t-43.5 -76t-69.5 -50t-93 -18q-53 0 -94.5 18t-69.5 50t-42.5 76t-14.5 96v443q0 18 12 30t29 12q16 0 27.5 -12.5t11.5 -29.5v-443q0 -72 34.5 -117t106.5 -45t106 46t34 116v443q0 17 11 29.5t28 12.5q18 0 30 -12.5t12 -29.5v-443zM424 850 q0 -13 -7.5 -24t-19.5 -19t-26.5 -12.5t-28.5 -5.5q-16 0 -29.5 4.5t-25.5 10.5t-23 11t-22 6q-14 0 -22.5 -4t-15 -9.5t-12.5 -9.5t-14 -4q-11 0 -19.5 7.5t-10.5 19.5q0 28 25 46.5t57 18.5q16 0 29 -4.5t25 -10.5t23 -11t23 -6q14 0 22.5 4t14.5 9t12 9.5t15 5.5 q12 0 21 -9t9 -23z"></glyph><glyph glyph-name="utilde" unicode="ũ" d="M352 123v350q0 16 9.5 27t29.5 11t29.5 -11t9.5 -27v-350q0 -21 1.5 -32t4.5 -18t6 -10.5t6 -9.5q2 -3 4.5 -8t2.5 -12q0 -14 -10.5 -24.5t-26.5 -10.5q-14 0 -24.5 8t-18.5 22q-33 -19 -70 -27.5t-72 -8.5q-80 0 -119.5 52t-39.5 137v292q0 16 10 27t29 11t29 -11 t10 -27v-292q0 -57 23.5 -88t68.5 -31q58 0 110 33q-1 8 -1.5 15t-0.5 13zM392 650q0 -13 -7.5 -24t-19.5 -19t-26.5 -12.5t-28.5 -5.5q-16 0 -29.5 4.5t-25.5 10.5t-23 11t-22 6q-14 0 -22.5 -4t-15 -9.5t-12.5 -9.5t-14 -4q-11 0 -19.5 7.5t-10.5 19.5q0 28 25 46.5 t57 18.5q16 0 29 -4.5t25 -10.5t23 -11t23 -6q14 0 22.5 4t14.5 9t12 9.5t15 5.5q12 0 21 -9t9 -23z"></glyph><glyph glyph-name="Umacron" unicode="Ū" d="M507 230q0 -52 -15 -96t-43.5 -76t-69.5 -50t-93 -18q-53 0 -94.5 18t-69.5 50t-42.5 76t-14.5 96v443q0 18 12 30t29 12q16 0 27.5 -12.5t11.5 -29.5v-443q0 -72 34.5 -117t106.5 -45t106 46t34 116v443q0 17 11 29.5t28 12.5q18 0 30 -12.5t12 -29.5v-443zM447 837 q0 -15 -10.5 -25.5t-25.5 -10.5h-249q-16 0 -26.5 10.5t-10.5 25.5t10.5 26t26.5 11h249q15 0 25.5 -11t10.5 -26z"></glyph><glyph glyph-name="umacron" unicode="ū" d="M352 123v350q0 16 9.5 27t29.5 11t29.5 -11t9.5 -27v-350q0 -21 1.5 -32t4.5 -18t6 -10.5t6 -9.5q2 -3 4.5 -8t2.5 -12q0 -14 -10.5 -24.5t-26.5 -10.5q-14 0 -24.5 8t-18.5 22q-33 -19 -70 -27.5t-72 -8.5q-80 0 -119.5 52t-39.5 137v292q0 16 10 27t29 11t29 -11 t10 -27v-292q0 -57 23.5 -88t68.5 -31q58 0 110 33q-1 8 -1.5 15t-0.5 13zM415 637q0 -15 -10.5 -25.5t-25.5 -10.5h-249q-16 0 -26.5 10.5t-10.5 25.5t10.5 26t26.5 11h249q15 0 25.5 -11t10.5 -26z"></glyph><glyph glyph-name="Ubreve" unicode="Ŭ" d="M507 230q0 -52 -15 -96t-43.5 -76t-69.5 -50t-93 -18q-53 0 -94.5 18t-69.5 50t-42.5 76t-14.5 96v443q0 18 12 30t29 12q16 0 27.5 -12.5t11.5 -29.5v-443q0 -72 34.5 -117t106.5 -45t106 46t34 116v443q0 17 11 29.5t28 12.5q18 0 30 -12.5t12 -29.5v-443zM286 833 q17 0 33 9t32 32q5 8 13.5 12t16.5 4q13 0 22 -8.5t4 -28.5t-18 -35.5t-30.5 -25.5t-36.5 -15t-36 -5t-36 5t-36.5 15t-31 25.5t-18.5 35.5t4.5 28.5t22.5 8.5q8 0 16.5 -4t13.5 -12q16 -23 32 -32t33 -9z"></glyph><glyph glyph-name="ubreve" unicode="ŭ" d="M352 123v350q0 16 9.5 27t29.5 11t29.5 -11t9.5 -27v-350q0 -21 1.5 -32t4.5 -18t6 -10.5t6 -9.5q2 -3 4.5 -8t2.5 -12q0 -14 -10.5 -24.5t-26.5 -10.5q-14 0 -24.5 8t-18.5 22q-33 -19 -70 -27.5t-72 -8.5q-80 0 -119.5 52t-39.5 137v292q0 16 10 27t29 11t29 -11 t10 -27v-292q0 -57 23.5 -88t68.5 -31q58 0 110 33q-1 8 -1.5 15t-0.5 13zM254 633q17 0 33 9t32 32q5 8 13.5 12t16.5 4q13 0 22 -8.5t4 -28.5t-18 -35.5t-30.5 -25.5t-36.5 -15t-36 -5t-36 5t-36.5 15t-31 25.5t-18.5 35.5t4.5 28.5t22.5 8.5q8 0 16.5 -4t13.5 -12 q16 -23 32 -32t33 -9z"></glyph><glyph glyph-name="Uring" unicode="Ů" d="M507 230q0 -52 -15 -96t-43.5 -76t-69.5 -50t-93 -18q-53 0 -94.5 18t-69.5 50t-42.5 76t-14.5 96v443q0 18 12 30t29 12q16 0 27.5 -12.5t11.5 -29.5v-443q0 -72 34.5 -117t106.5 -45t106 46t34 116v443q0 17 11 29.5t28 12.5q18 0 30 -12.5t12 -29.5v-443zM385 844 q0 -42 -28.5 -70.5t-70.5 -28.5t-71 28.5t-29 70.5t29 70.5t71 28.5t70.5 -28.5t28.5 -70.5zM340 844q0 23 -15.5 39t-38.5 16t-38.5 -16t-15.5 -39t15.5 -38.5t38.5 -15.5t38.5 15.5t15.5 38.5z"></glyph><glyph glyph-name="uring" unicode="ů" d="M352 123v350q0 16 9.5 27t29.5 11t29.5 -11t9.5 -27v-350q0 -21 1.5 -32t4.5 -18t6 -10.5t6 -9.5q2 -3 4.5 -8t2.5 -12q0 -14 -10.5 -24.5t-26.5 -10.5q-14 0 -24.5 8t-18.5 22q-33 -19 -70 -27.5t-72 -8.5q-80 0 -119.5 52t-39.5 137v292q0 16 10 27t29 11t29 -11 t10 -27v-292q0 -57 23.5 -88t68.5 -31q58 0 110 33q-1 8 -1.5 15t-0.5 13zM354 644q0 -42 -28.5 -70.5t-70.5 -28.5t-71 28.5t-29 70.5t29 70.5t71 28.5t70.5 -28.5t28.5 -70.5zM309 644q0 23 -15.5 39t-38.5 16t-38.5 -16t-15.5 -39t15.5 -38.5t38.5 -15.5t38.5 15.5 t15.5 38.5z"></glyph><glyph glyph-name="Uhungarumlaut" unicode="Ű" d="M507 230q0 -52 -15 -96t-43.5 -76t-69.5 -50t-93 -18q-53 0 -94.5 18t-69.5 50t-42.5 76t-14.5 96v443q0 18 12 30t29 12q16 0 27.5 -12.5t11.5 -29.5v-443q0 -72 34.5 -117t106.5 -45t106 46t34 116v443q0 17 11 29.5t28 12.5q18 0 30 -12.5t12 -29.5v-443zM190 812 l63 94q8 11 14.5 20t21.5 9q13 0 23 -10.5t10 -24.5q0 -4 -2 -10l-65 -99q-8 -11 -15 -17.5t-18 -6.5q-14 0 -24 9.5t-10 23.5q0 8 2 12zM325 812l63 94q7 11 14 20t21 9q11 0 23 -10t12 -23q0 -6 -3 -12l-65 -99q-8 -11 -14.5 -17.5t-18.5 -6.5q-14 0 -24 9.5t-10 23.5 q0 8 2 12z"></glyph><glyph glyph-name="uhungarumlaut" unicode="ű" d="M352 123v350q0 16 9.5 27t29.5 11t29.5 -11t9.5 -27v-350q0 -21 1.5 -32t4.5 -18t6 -10.5t6 -9.5q2 -3 4.5 -8t2.5 -12q0 -14 -10.5 -24.5t-26.5 -10.5q-14 0 -24.5 8t-18.5 22q-33 -19 -70 -27.5t-72 -8.5q-80 0 -119.5 52t-39.5 137v292q0 16 10 27t29 11t29 -11 t10 -27v-292q0 -57 23.5 -88t68.5 -31q58 0 110 33q-1 8 -1.5 15t-0.5 13zM156 612l63 94q8 11 14.5 20t21.5 9q13 0 23 -10.5t10 -24.5q0 -4 -2 -10l-65 -99q-8 -11 -15 -17.5t-18 -6.5q-14 0 -24 9.5t-10 23.5q0 8 2 12zM291 612l63 94q7 11 14 20t21 9q11 0 23 -10 t12 -23q0 -6 -3 -12l-65 -99q-8 -11 -14.5 -17.5t-18.5 -6.5q-14 0 -24 9.5t-10 23.5q0 8 2 12z"></glyph><glyph glyph-name="Uogonek" unicode="Ų" d="M507 230q0 -78 -32 -135.5t-91 -84.5q-12 -23 -24.5 -49.5t-12.5 -49.5q0 -19 10.5 -32t33.5 -13q18 0 26 2.5t16 2.5q11 0 19 -8t8 -19q0 -13 -7.5 -20.5t-19 -11.5t-25 -5.5t-25.5 -1.5q-47 0 -75 21.5t-28 68.5q0 24 8.5 48.5t23.5 47.5q-7 -1 -13 -1h-13 q-53 0 -94.5 18t-69.5 50t-42.5 76t-14.5 96v443q0 18 12 30t29 12q16 0 27.5 -12.5t11.5 -29.5v-443q0 -72 34.5 -117t106.5 -45t106 46t34 116v443q0 17 11 29.5t28 12.5q18 0 30 -12.5t12 -29.5v-443z"></glyph><glyph glyph-name="uogonek" unicode="ų" d="M523 -156q0 -13 -7.5 -20.5t-19 -11.5t-25 -5.5t-25.5 -1.5q-47 0 -75 21.5t-28 68.5q0 29 13 58.5t34 55.5q-9 8 -15 18q-33 -18 -70 -26.5t-72 -8.5q-80 0 -119.5 52t-39.5 137v292q0 16 10 27t29 11t29 -11t10 -27v-292q0 -57 23.5 -88t68.5 -31q29 0 57 8.5t53 23.5 q-2 8 -2 15v14v350q0 16 9.5 27t29.5 11t29.5 -11t9.5 -27v-350q0 -21 1.5 -32t4.5 -18t6 -10.5t6 -9.5q2 -3 4.5 -8t2.5 -12q0 -8 -3 -13.5t-8 -11.5q-14 -20 -24 -47t-10 -50q0 -19 10.5 -32t33.5 -13q18 0 26 2.5t16 2.5q11 0 19 -8t8 -19z"></glyph><glyph glyph-name="Wcircumflex" unicode="Ŵ" d="M503 47l-115 503l-116 -504q-5 -20 -16.5 -38t-36.5 -18q-22 0 -35.5 16.5t-18.5 39.5l-149 619q-1 0 -1 6v5q0 17 14.5 26t30.5 9q12 0 22 -7t14 -22l124 -533l116 508q7 28 16.5 43t35.5 15q24 0 34.5 -16t16.5 -42l116 -508l124 533q10 29 34 29q16 0 32 -8.5 t16 -27.5q0 -1 -2 -11l-149 -618q-5 -22 -17.5 -39t-35.5 -17t-36 17.5t-18 39.5zM388 836l-75 -61q-2 -3 -8 -4.5t-11 -1.5q-10 0 -17.5 8t-7.5 18q0 8 5 15.5t13 14.5l79 67q5 3 10 5.5t12 2.5t12 -2.5t10 -5.5l79 -67q8 -7 13 -14.5t5 -15.5q0 -10 -7.5 -18t-18.5 -8 q-4 0 -10 1.5t-8 4.5z"></glyph><glyph glyph-name="wcircumflex" unicode="ŵ" d="M629 465l-115 -428q-7 -23 -17.5 -34t-32.5 -11q-16 0 -28.5 8.5t-17.5 25.5l-90 351l-89 -351q-10 -34 -47 -34q-20 0 -32 12t-18 33l-116 431q-1 2 -1 6q0 14 11 25.5t28 11.5q12 0 22 -7t14 -21l94 -368q23 91 45 180t45 181q4 15 15.5 25t29.5 10q17 0 28 -10t15 -25 q22 -92 45 -181t46 -180l93 368q3 12 13 20t23 8q15 0 26.5 -11t11.5 -28q0 -2 -0.5 -3.5t-0.5 -3.5zM327 636l-75 -61q-2 -3 -8 -4.5t-11 -1.5q-10 0 -17.5 8t-7.5 18q0 8 5 15.5t13 14.5l79 67q5 3 10 5.5t12 2.5t12 -2.5t10 -5.5l79 -67q8 -7 13 -14.5t5 -15.5 q0 -10 -7.5 -18t-18.5 -8q-4 0 -10 1.5t-8 4.5z"></glyph><glyph glyph-name="Ycircumflex" unicode="Ŷ" d="M238 -10q-17 0 -29 12.5t-12 29.5v245l-178 378q-4 10 -4 19q0 17 12.5 29t28.5 12q9 0 17.5 -4t13.5 -12l151 -329l151 329q5 8 13.5 12t17.5 4q16 0 28.5 -12t12.5 -29q0 -9 -4 -19l-178 -380v-243q0 -17 -12 -29.5t-29 -12.5zM238 836l-75 -61q-2 -3 -8 -4.5t-11 -1.5 q-10 0 -17.5 8t-7.5 18q0 8 5 15.5t13 14.5l79 67q5 3 10 5.5t12 2.5t12 -2.5t10 -5.5l79 -67q8 -7 13 -14.5t5 -15.5q0 -10 -7.5 -18t-18.5 -8q-4 0 -10 1.5t-8 4.5z"></glyph><glyph glyph-name="ycircumflex" unicode="ŷ" d="M396 460l-122 -397q-18 -58 -35.5 -106.5t-41.5 -83.5t-57 -55t-82 -21q-17 0 -28.5 10.5t-11.5 27.5q0 14 10 25t27 12q24 1 41.5 8.5t31.5 23t25.5 39.5t22.5 59l-159 459q-2 2 -2 6.5v7.5q0 16 11 26t28 10q11 0 20.5 -6.5t14.5 -19.5l125 -379l109 379q5 13 15 19.5 t21 6.5q15 0 27 -11t12 -28q0 -4 -2 -12zM180 636l-75 -61q-2 -3 -8 -4.5t-11 -1.5q-10 0 -17.5 8t-7.5 18q0 8 5 15.5t13 14.5l79 67q5 3 10 5.5t12 2.5t12 -2.5t10 -5.5l79 -67q8 -7 13 -14.5t5 -15.5q0 -10 -7.5 -18t-18.5 -8q-4 0 -10 1.5t-8 4.5z"></glyph><glyph glyph-name="Ydieresis" unicode="Ÿ" d="M238 -10q-17 0 -29 12.5t-12 29.5v245l-178 378q-4 10 -4 19q0 17 12.5 29t28.5 12q9 0 17.5 -4t13.5 -12l151 -329l151 329q5 8 13.5 12t17.5 4q16 0 28.5 -12t12.5 -29q0 -9 -4 -19l-178 -380v-243q0 -17 -12 -29.5t-29 -12.5zM369 839q0 -20 -13.5 -34.5t-33.5 -14.5 t-34 14.5t-14 34.5q0 19 14 33t34 14t33.5 -13.5t13.5 -33.5zM200 839q0 -20 -14 -34.5t-34 -14.5t-33 14.5t-13 34.5q0 19 13 33t33 14t34 -13.5t14 -33.5z"></glyph><glyph glyph-name="Zacute" unicode="Ź" d="M454 41q0 -17 -11.5 -29t-28.5 -12h-343q-18 0 -30 13t-12 31q0 7 3.5 17t6.5 15l308 549h-277q-17 0 -28 11.5t-11 28.5q0 16 11 28t28 12h339q19 0 31 -12.5t12 -30.5q0 -9 -3 -16.5t-7 -14.5l-310 -551h282q16 0 28 -11t12 -28zM211 824l78 81q11 10 17 16.5t20 6.5 q11 0 21 -9.5t10 -23.5q0 -4 -1 -8.5t-4 -8.5l-81 -86q-9 -8 -15.5 -13t-16.5 -5q-14 0 -23.5 9.5t-9.5 25.5q0 9 5 15z"></glyph><glyph glyph-name="zacute" unicode="ź" d="M367 465q0 -14 -9 -28l-247 -365h221q16 0 26.5 -10.5t10.5 -25.5t-10.5 -25.5t-26.5 -10.5h-277q-16 0 -28 12t-12 30q0 14 7 25l248 366h-209q-15 0 -25.5 10.5t-10.5 25.5q0 16 10.5 26t25.5 10h265q17 0 29 -10.5t12 -29.5zM172 624l78 81q11 10 17 16.5t20 6.5 q11 0 21 -9.5t10 -23.5q0 -4 -1 -8.5t-4 -8.5l-81 -86q-9 -8 -15.5 -13t-16.5 -5q-14 0 -23.5 9.5t-9.5 25.5q0 9 5 15z"></glyph><glyph glyph-name="Zdotaccent" unicode="Ż" d="M454 41q0 -17 -11.5 -29t-28.5 -12h-343q-18 0 -30 13t-12 31q0 7 3.5 17t6.5 15l308 549h-277q-17 0 -28 11.5t-11 28.5q0 16 11 28t28 12h339q19 0 31 -12.5t12 -30.5q0 -9 -3 -16.5t-7 -14.5l-310 -551h282q16 0 28 -11t12 -28zM289 839q0 -20 -14 -34.5t-34 -14.5 t-33 14.5t-13 34.5q0 19 13 33t33 14t34 -13.5t14 -33.5z"></glyph><glyph glyph-name="zdotaccent" unicode="ż" d="M367 465q0 -14 -9 -28l-247 -365h221q16 0 26.5 -10.5t10.5 -25.5t-10.5 -25.5t-26.5 -10.5h-277q-16 0 -28 12t-12 30q0 14 7 25l248 366h-209q-15 0 -25.5 10.5t-10.5 25.5q0 16 10.5 26t25.5 10h265q17 0 29 -10.5t12 -29.5zM239 639q0 -20 -14 -34.5t-34 -14.5 t-33 14.5t-13 34.5q0 19 13 33t33 14t34 -13.5t14 -33.5z"></glyph><glyph glyph-name="Zcaron" unicode="Ž" d="M454 41q0 -17 -11.5 -29t-28.5 -12h-343q-18 0 -30 13t-12 31q0 7 3.5 17t6.5 15l308 549h-277q-17 0 -28 11.5t-11 28.5q0 16 11 28t28 12h339q19 0 31 -12.5t12 -30.5q0 -9 -3 -16.5t-7 -14.5l-310 -551h282q16 0 28 -11t12 -28zM242 762q-13 0 -24 9l-88 73 q-10 8 -15 15.5t-5 18.5q0 13 9.5 21t21.5 8q8 0 18 -7l83 -67l83 67q11 7 18 7q12 0 21.5 -8t9.5 -21q0 -11 -5 -18.5t-15 -15.5l-88 -73q-11 -9 -24 -9z"></glyph><glyph glyph-name="zcaron" unicode="ž" d="M367 465q0 -14 -9 -28l-247 -365h221q16 0 26.5 -10.5t10.5 -25.5t-10.5 -25.5t-26.5 -10.5h-277q-16 0 -28 12t-12 30q0 14 7 25l248 366h-209q-15 0 -25.5 10.5t-10.5 25.5q0 16 10.5 26t25.5 10h265q17 0 29 -10.5t12 -29.5zM193 562q-13 0 -24 9l-88 73 q-10 8 -15 15.5t-5 18.5q0 13 9.5 21t21.5 8q8 0 18 -7l83 -67l83 67q11 7 18 7q12 0 21.5 -8t9.5 -21q0 -11 -5 -18.5t-15 -15.5l-88 -73q-11 -9 -24 -9z"></glyph><glyph glyph-name="florin" unicode="ƒ" d="M478 672q0 -13 -4.5 -19.5t-10.5 -9t-13.5 -2.5t-13.5 1t-14 1.5t-13 0.5q-26 0 -46 -17t-25 -47l-22 -131h84q14 0 24 -8t10 -27t-10 -26.5t-24 -7.5h-97l-74 -422q-7 -38 -17.5 -68.5t-27 -53t-41 -34.5t-59.5 -12t-58 5t-23 31q0 17 11 27t28 10q5 0 13 -0.5t16 -0.5 q38 0 54.5 22t24.5 68l75 428h-84q-14 0 -24 8t-10 27t10 26.5t24 7.5h96l25 143q10 57 50.5 90t106.5 33q21 0 40 -7t19 -36z"></glyph><glyph glyph-name="uni0218" unicode="Ș" d="M360 191q0 24 -5.5 41t-13.5 29t-18.5 19t-19.5 12q-36 19 -81 32t-85 34.5t-67.5 58.5t-27.5 103q0 91 54 143t148 52q19 0 48 -2.5t56.5 -10t47 -21t19.5 -34.5q0 -15 -10.5 -26.5t-29.5 -11.5q-12 0 -23 4.5t-25.5 9.5t-32.5 9.5t-44 4.5q-24 0 -46.5 -5.5t-40 -18 t-28 -34t-10.5 -54.5q0 -25 6 -42t14.5 -28.5t18.5 -18t19 -11.5q36 -19 81.5 -32t85 -34.5t67 -58t27.5 -102.5q0 -49 -16.5 -88t-45.5 -65.5t-69.5 -40.5t-87.5 -14q-24 0 -55.5 4t-60 13t-48.5 23t-20 34q0 15 10.5 27t25.5 12q11 0 24.5 -5.5t31.5 -12t41 -12t52 -5.5 q67 0 100.5 32t33.5 91zM297 -104q0 -21 -8 -44.5t-20 -43.5t-25 -33t-23 -13q-8 0 -13.5 4t-5.5 13q0 8 4 15t10 14t12.5 14.5t10.5 18.5q-21 2 -35 17.5t-14 37.5q0 23 15.5 38t38.5 15q22 0 37.5 -15.5t15.5 -37.5z"></glyph><glyph glyph-name="uni0219" unicode="ș" d="M53 370q0 65 41 104.5t121 39.5q20 0 43 -3t43 -9.5t33.5 -17t13.5 -26.5q0 -14 -10 -25t-26 -11q-8 0 -18 5q-16 8 -32.5 13t-43.5 5q-89 0 -89 -70q0 -23 10.5 -37t36.5 -27t58 -23t60.5 -27.5t48 -45.5t19.5 -77q0 -68 -42 -107t-126 -39q-19 0 -44.5 2.5t-48 9 t-38.5 18t-16 28.5q0 13 9.5 24.5t27.5 11.5q5 0 6.5 -0.5t3.5 -1.5q21 -8 45.5 -15.5t54.5 -7.5q42 0 67 17.5t25 56.5q0 27 -11 40.5t-26 21.5q-24 13 -57.5 23t-64 27t-52.5 45.5t-22 77.5zM257 -104q0 -21 -8 -44.5t-20 -43.5t-25 -33t-23 -13q-8 0 -13.5 4t-5.5 13 q0 8 4 15t10 14t12.5 14.5t10.5 18.5q-21 2 -35 17.5t-14 37.5q0 23 15.5 38t38.5 15q22 0 37.5 -15.5t15.5 -37.5z"></glyph><glyph glyph-name="uni021A" unicode="Ț" d="M201 30v597h-136q-17 0 -28.5 11.5t-11.5 27.5q0 13 11.5 26t28.5 13h352q16 0 28.5 -11t12.5 -28q0 -16 -12 -27.5t-29 -11.5h-136v-597q0 -16 -11.5 -28t-28.5 -12t-28.5 12t-11.5 28zM295 -104q0 -21 -8 -44.5t-20 -43.5t-25 -33t-23 -13q-8 0 -13.5 4t-5.5 13 q0 8 4 15t10 14t12.5 14.5t10.5 18.5q-21 2 -35 17.5t-14 37.5q0 23 15.5 38t38.5 15q22 0 37.5 -15.5t15.5 -37.5z"></glyph><glyph glyph-name="uni021B" unicode="ț" d="M74 203v418q0 16 10 27t29 11t29 -11t10 -27v-138h104q15 0 25.5 -10.5t10.5 -26.5t-10.5 -26.5t-25.5 -10.5h-104v-199q0 -39 2.5 -65.5t11.5 -43.5t25 -24.5t43 -7.5q5 0 9.5 0.5t9.5 0.5q17 0 34.5 -6t17.5 -30q0 -26 -18 -32t-39 -6q-52 0 -86 13t-53.5 39t-27 64.5 t-7.5 90.5zM274 -104q0 -21 -8 -44.5t-20 -43.5t-25 -33t-23 -13q-8 0 -13.5 4t-5.5 13q0 8 4 15t10 14t12.5 14.5t10.5 18.5q-21 2 -35 17.5t-14 37.5q0 23 15.5 38t38.5 15q22 0 37.5 -15.5t15.5 -37.5z"></glyph><glyph glyph-name="dotlessj" unicode="ȷ" d="M161 472v-487q0 -79 -36.5 -128t-104.5 -59q-6 -1 -10 -1h-9q-27 0 -33 26q-5 20 7 30.5t23 12.5q41 9 63 34.5t22 80.5v491q0 16 11 27.5t28 11.5t28 -11.5t11 -27.5z"></glyph><glyph glyph-name="circumflex" unicode="ˆ" d="M197 636l-75 -61q-2 -3 -8 -4.5t-11 -1.5q-10 0 -17.5 8t-7.5 18q0 8 5 15.5t13 14.5l79 67q5 3 10 5.5t12 2.5t12 -2.5t10 -5.5l79 -67q8 -7 13 -14.5t5 -15.5q0 -10 -7.5 -18t-18.5 -8q-4 0 -10 1.5t-8 4.5z"></glyph><glyph glyph-name="caron" unicode="ˇ" d="M195 562q-13 0 -24 9l-88 73q-10 8 -15 15.5t-5 18.5q0 13 9.5 21t21.5 8q8 0 18 -7l83 -67l83 67q11 7 18 7q12 0 21.5 -8t9.5 -21q0 -11 -5 -18.5t-15 -15.5l-88 -73q-11 -9 -24 -9z"></glyph><glyph glyph-name="breve" unicode="˘" d="M183 633q17 0 33 9t32 32q5 8 13.5 12t16.5 4q13 0 22 -8.5t4 -28.5t-18 -35.5t-30.5 -25.5t-36.5 -15t-36 -5t-36 5t-36.5 15t-31 25.5t-18.5 35.5t4.5 28.5t22.5 8.5q8 0 16.5 -4t13.5 -12q16 -23 32 -32t33 -9z"></glyph><glyph glyph-name="dotaccent" unicode="˙" d="M166 639q0 -20 -14 -34.5t-34 -14.5t-33 14.5t-13 34.5q0 19 13 33t33 14t34 -13.5t14 -33.5z"></glyph><glyph glyph-name="ring" unicode="˚" d="M381 644q0 -42 -28.5 -70.5t-70.5 -28.5t-71 28.5t-29 70.5t29 70.5t71 28.5t70.5 -28.5t28.5 -70.5zM336 644q0 23 -15.5 39t-38.5 16t-38.5 -16t-15.5 -39t15.5 -38.5t38.5 -15.5t38.5 15.5t15.5 38.5z"></glyph><glyph glyph-name="ogonek" unicode="˛" d="M249 -156q0 -13 -7.5 -20.5t-19 -11.5t-25 -5.5t-25.5 -1.5q-47 0 -75 21.5t-28 68.5q0 26 10.5 53.5t27.5 51.5h60q-10 -20 -20.5 -44t-10.5 -45q0 -19 10.5 -32t33.5 -13q18 0 26 2.5t16 2.5q11 0 19 -8t8 -19z"></glyph><glyph glyph-name="tilde" unicode="˜" d="M333 650q0 -13 -7.5 -24t-19.5 -19t-26.5 -12.5t-28.5 -5.5q-16 0 -29.5 4.5t-25.5 10.5t-23 11t-22 6q-14 0 -22.5 -4t-15 -9.5t-12.5 -9.5t-14 -4q-11 0 -19.5 7.5t-10.5 19.5q0 28 25 46.5t57 18.5q16 0 29 -4.5t25 -10.5t23 -11t23 -6q14 0 22.5 4t14.5 9t12 9.5 t15 5.5q12 0 21 -9t9 -23z"></glyph><glyph glyph-name="hungarumlaut" unicode="˝" d="M73 612l63 94q8 11 14.5 20t21.5 9q13 0 23 -10.5t10 -24.5q0 -4 -2 -10l-65 -99q-8 -11 -15 -17.5t-18 -6.5q-14 0 -24 9.5t-10 23.5q0 8 2 12zM208 612l63 94q7 11 14 20t21 9q11 0 23 -10t12 -23q0 -6 -3 -12l-65 -99q-8 -11 -14.5 -17.5t-18.5 -6.5q-14 0 -24 9.5 t-10 23.5q0 8 2 12z"></glyph><glyph glyph-name="uni0400" unicode="Ѐ" d="M441 41q0 -17 -11.5 -29t-28.5 -12h-265q-25 0 -44 10t-19 37v611q0 17 13.5 32t33.5 15h271q17 0 28.5 -11.5t11.5 -28.5t-11.5 -27.5t-28.5 -10.5h-238v-234h219q15 0 27 -11t12 -28t-11 -28t-28 -11h-219v-237h248q16 0 28 -11t12 -26zM229 906l78 -81q5 -6 5 -15 q0 -16 -10 -25.5t-23 -9.5q-10 0 -17 5t-15 13l-81 86q-3 4 -4 8.5t-1 8.5q0 14 10 23.5t21 9.5q14 0 20 -6.5t17 -16.5z"></glyph><glyph glyph-name="uni0401" unicode="Ё" d="M441 41q0 -17 -11.5 -29t-28.5 -12h-265q-25 0 -44 10t-19 37v611q0 17 13.5 32t33.5 15h271q17 0 28.5 -11.5t11.5 -28.5t-11.5 -27.5t-28.5 -10.5h-238v-234h219q15 0 27 -11t12 -28t-11 -28t-28 -11h-219v-237h248q16 0 28 -11t12 -26zM399 840q0 -20 -13.5 -34.5 t-33.5 -14.5t-34 14.5t-14 34.5q0 19 14 33t34 14t33.5 -13.5t13.5 -33.5zM230 840q0 -20 -14 -34.5t-34 -14.5t-33 14.5t-13 34.5q0 19 13 33t33 14t34 -13.5t14 -33.5z"></glyph><glyph glyph-name="uni0402" unicode="Ђ" d="M161 30v598h-96q-17 0 -28.5 12t-11.5 26t11.5 27t28.5 13h352q16 0 28.5 -11t12.5 -28q0 -16 -12 -27.5t-29 -11.5h-176v-209q30 14 64 20t66 6q100 0 155 -56.5t55 -169.5q0 -52 -12 -94.5t-35 -72.5t-55 -46t-73 -16q-45 0 -73.5 17.5t-28.5 42.5q0 15 10.5 25 t24.5 10q8 0 12.5 -2.5t10 -6t13.5 -6t23 -2.5q49 0 76 35.5t27 113.5q0 83 -33 116.5t-103 33.5q-33 0 -65.5 -7t-58.5 -21v-309q0 -16 -11.5 -28t-28.5 -12t-28.5 12t-11.5 28z"></glyph><glyph glyph-name="uni0403" unicode="Ѓ" d="M153 628v-597q0 -16 -11.5 -28t-28.5 -12t-28.5 12t-11.5 28v630q0 17 12.5 31t32.5 14h272q17 0 28 -11.5t11 -27.5q0 -17 -11 -28t-28 -11h-237zM223 825l78 81q11 10 17 16.5t20 6.5q11 0 21 -9.5t10 -23.5q0 -4 -1 -8.5t-4 -8.5l-81 -86q-9 -8 -15.5 -13t-16.5 -5 q-14 0 -23.5 9.5t-9.5 25.5q0 9 5 15z"></glyph><glyph glyph-name="uni0404" unicode="Є" d="M45 246v214q0 58 13.5 105t41.5 80.5t70 51.5t100 18q34 0 66 -7t56.5 -18.5t39.5 -27t15 -33.5q0 -14 -10 -24.5t-26 -10.5q-11 0 -17.5 4.5t-18.5 12.5q-44 31 -100 31q-42 0 -71 -12.5t-46.5 -36.5t-25 -57.5t-7.5 -75.5v-67h186q15 0 26.5 -11t11.5 -28t-10.5 -28.5 t-27.5 -11.5h-186v-68q0 -42 7.5 -75.5t25 -57.5t46.5 -36.5t71 -12.5q56 0 100 31q13 8 19 12.5t17 4.5q16 0 26 -10.5t10 -24.5q0 -18 -15 -33.5t-39.5 -27t-56.5 -18.5t-66 -7q-58 0 -100 18t-70 51.5t-41.5 80.5t-13.5 105z"></glyph><glyph glyph-name="uni0405" unicode="Ѕ" d="M360 191q0 24 -5.5 41t-13.5 29t-18.5 19t-19.5 12q-36 19 -81 32t-85 34.5t-67.5 58.5t-27.5 103q0 91 54 143t148 52q19 0 48 -2.5t56.5 -10t47 -21t19.5 -34.5q0 -15 -10.5 -26.5t-29.5 -11.5q-12 0 -23 4.5t-25.5 9.5t-32.5 9.5t-44 4.5q-24 0 -46.5 -5.5t-40 -18 t-28 -34t-10.5 -54.5q0 -25 6 -42t14.5 -28.5t18.5 -18t19 -11.5q36 -19 81.5 -32t85 -34.5t67 -58t27.5 -102.5q0 -49 -16.5 -88t-45.5 -65.5t-69.5 -40.5t-87.5 -14q-24 0 -55.5 4t-60 13t-48.5 23t-20 34q0 15 10.5 27t25.5 12q11 0 24.5 -5.5t31.5 -12t41 -12t52 -5.5 q67 0 100.5 32t33.5 91z"></glyph><glyph glyph-name="uni0406" unicode="І" d="M73 30v645q0 16 11.5 28t28.5 12t28.5 -12t11.5 -28v-645q0 -16 -11.5 -28t-28.5 -12t-28.5 12t-11.5 28z"></glyph><glyph glyph-name="uni0407" unicode="Ї" d="M73 30v645q0 16 11.5 28t28.5 12t28.5 -12t11.5 -28v-645q0 -16 -11.5 -28t-28.5 -12t-28.5 12t-11.5 28zM245 840q0 -20 -13.5 -34.5t-33.5 -14.5t-34 14.5t-14 34.5q0 19 14 33t34 14t33.5 -13.5t13.5 -33.5zM76 840q0 -20 -14 -34.5t-34 -14.5t-33 14.5t-13 34.5 q0 19 13 33t33 14t34 -13.5t14 -33.5z"></glyph><glyph glyph-name="uni0408" unicode="Ј" d="M312 675v-450q0 -55 -10 -98.5t-33 -74t-62 -46.5t-97 -16q-10 0 -25 1t-28 5.5t-22.5 13.5t-9.5 25q0 19 12 29t23 10q8 0 23 -3.5t38 -3.5q35 0 56.5 11t33.5 31.5t16.5 50t4.5 65.5v450q0 17 11.5 28.5t28.5 11.5q16 0 28 -12t12 -28z"></glyph><glyph glyph-name="uni0409" unicode="Љ" d="M435 573h1v55h-194l-31 -459q-5 -81 -34 -129t-91 -48q-15 0 -28.5 1t-24 4.5t-17 11.5t-6.5 23q0 22 11.5 31.5t25.5 9.5q10 0 13.5 -1.5t14.5 -1.5q27 0 40 22.5t17 70.5l36 504q2 22 14.5 30.5t23.5 8.5h270q16 0 28 -11.5t12 -27.5v-221h94q103 0 164 -57t61 -164 q0 -44 -12 -84.5t-38.5 -72t-69.5 -50t-105 -18.5h-127q-20 0 -34 14t-14 34v525zM516 131h-1v-53h95q44 0 72.5 12.5t44.5 33.5t22 47t6 53q0 74 -36.5 109t-108.5 35h-94v-237z"></glyph><glyph glyph-name="uni040A" unicode="Њ" d="M153 31q0 -17 -11.5 -29t-28.5 -12t-28.5 12t-11.5 29v644q0 16 11.5 28t28.5 12t28.5 -12t11.5 -28v-283h253v281q0 17 12 29.5t28 12.5q17 0 28.5 -12.5t11.5 -29.5v-227h95q103 0 164 -57t61 -164q0 -44 -12 -84.5t-38.5 -72t-69.5 -50t-105 -18.5h-127q-20 0 -34 14 t-14 34v266h-253v-283zM486 78h95q44 0 72.5 12.5t44.5 33.5t22 47t6 53q0 74 -36.5 109t-108.5 35h-95v-290z"></glyph><glyph glyph-name="uni040B" unicode="Ћ" d="M458 667q0 -16 -12 -27.5t-29 -11.5h-176v-209q30 14 64 20t66 6q100 0 155 -57t55 -164v-192q0 -17 -11.5 -29.5t-28.5 -12.5q-16 0 -28 12.5t-12 29.5v191q0 78 -34 111t-103 33q-32 0 -64.5 -7t-58.5 -21v-309q0 -16 -11.5 -28t-28.5 -12t-28.5 12t-11.5 28v598h-96 q-17 0 -28.5 11.5t-11.5 27.5q0 13 11.5 26t28.5 13h352q16 0 28.5 -11t12.5 -28z"></glyph><glyph glyph-name="uni040C" unicode="Ќ" d="M153 675v-283h58l209 304q13 19 33 19q18 0 28 -14.5t10 -28.5q0 -10 -5 -19l-210 -301l210 -300q5 -9 5 -19q0 -14 -10 -28.5t-28 -14.5q-20 0 -33 19l-210 305h-57v-283q0 -17 -11.5 -29t-28.5 -12t-28.5 12t-11.5 29v644q0 16 11.5 28t28.5 12t28.5 -12t11.5 -28z M241 825l78 81q11 10 17 16.5t20 6.5q11 0 21 -9.5t10 -23.5q0 -4 -1 -8.5t-4 -8.5l-81 -86q-9 -8 -15.5 -13t-16.5 -5q-14 0 -23.5 9.5t-9.5 25.5q0 9 5 15z"></glyph><glyph glyph-name="uni040D" unicode="Ѝ" d="M117 -10q-20 0 -32 13t-12 31v640q0 17 11 29t28 12t29 -12t12 -29v-510l278 527q6 11 17.5 17.5t24.5 6.5q19 0 31 -12.5t12 -31.5v-640q0 -17 -11 -29t-28 -12t-29 12t-12 29v510l-278 -528q-6 -11 -17.5 -17t-23.5 -6zM238 906l78 -81q5 -6 5 -15q0 -16 -10 -25.5 t-23 -9.5q-10 0 -17 5t-15 13l-81 86q-3 4 -4 8.5t-1 8.5q0 14 10 23.5t21 9.5q14 0 20 -6.5t17 -16.5z"></glyph><glyph glyph-name="uni040E" unicode="Ў" d="M476 664l-162 -436q-18 -52 -35.5 -95t-41.5 -74t-57 -48.5t-82 -18.5q-17 0 -28.5 10.5t-11.5 27.5q0 14 10 25t27 12q47 2 73 24t48 76l-189 498q-2 2 -2 6.5v7.5q0 16 11 26t28 10q11 0 20.5 -6.5t14.5 -19.5l155 -418l149 418q5 13 15 19.5t21 6.5q15 0 27 -11 t12 -28q0 -8 -2 -12zM251 834q17 0 33 9t32 32q5 8 13.5 12t16.5 4q13 0 22 -8.5t4 -28.5t-18 -35.5t-30.5 -25.5t-36.5 -15t-36 -5t-36 5t-36.5 15t-31 25.5t-18.5 35.5t4.5 28.5t22.5 8.5q8 0 16.5 -4t13.5 -12q16 -23 32 -32t33 -9z"></glyph><glyph glyph-name="uni040F" unicode="Џ" d="M249 -120v120h-136q-17 0 -28.5 12t-11.5 28v635q0 17 11.5 29t28.5 12t28.5 -12t11.5 -29v-597h273v597q0 17 12 29t28 12q17 0 28.5 -12t11.5 -29v-635q0 -16 -12 -28t-28 -12h-137v-120q0 -16 -11.5 -28t-28.5 -12t-28.5 12t-11.5 28z"></glyph><glyph glyph-name="uni0410" unicode="А" d="M105 20q-5 -14 -16 -22t-22 -8q-17 0 -29.5 11t-12.5 29q0 3 0.5 8t1.5 7l195 617q7 23 18.5 38t33.5 15q23 0 34 -15t19 -38l195 -617q1 -2 1.5 -7t0.5 -8q0 -18 -12 -29t-30 -11q-11 0 -23 8t-16 22l-43 139h-253zM171 237h206l-103 339z"></glyph><glyph glyph-name="uni0411" unicode="Б" d="M153 628v-202h115q103 0 164 -54t61 -157q0 -42 -12 -81t-38.5 -68.5t-69.5 -47.5t-105 -18h-147q-20 0 -34 14t-14 34v613q0 17 12.5 31t32.5 14h292q17 0 28 -11.5t11 -27.5q0 -17 -11 -28t-28 -11h-257zM268 78q44 0 72.5 12t44.5 31t22 43.5t6 49.5q0 134 -145 134 h-115v-270h115z"></glyph><glyph glyph-name="uni0412" unicode="В" d="M153 405h115q24 0 48.5 7t44 22t32 37.5t12.5 52.5q0 20 -6 38.5t-20 33t-37 23t-57 8.5h-132v-222zM271 327h-118v-249h122q75 0 112 33.5t37 87.5q0 62 -43.5 95t-109.5 33zM286 0h-165q-20 0 -34 14t-14 34v609q0 20 14 34t34 14h169q49 0 85.5 -15.5t61 -41t36.5 -58 t12 -67.5q0 -32 -9.5 -57t-27 -44t-41 -33t-51.5 -26q25 -8 51.5 -18.5t48 -28.5t35 -46t13.5 -70t-15 -78.5t-43.5 -63.5t-68.5 -42.5t-91 -15.5z"></glyph><glyph glyph-name="uni0413" unicode="Г" d="M153 628v-597q0 -16 -11.5 -28t-28.5 -12t-28.5 12t-11.5 28v630q0 17 12.5 31t32.5 14h272q17 0 28 -11.5t11 -27.5q0 -17 -11 -28t-28 -11h-237z"></glyph><glyph glyph-name="uni0414" unicode="Д" d="M495 706q17 0 28.5 -11.5t11.5 -27.5v-589h25q17 0 29 -14.5t12 -36.5v-128q0 -17 -12 -28t-29 -11t-28 11t-11 28v101h-416v-101q0 -17 -11 -28t-28 -11t-28 11t-11 28v128q0 22 11 36.5t28 14.5h29q25 34 38.5 102t18.5 163l15 324q2 22 14.5 30.5t23.5 8.5h290z M232 343q-4 -85 -18.5 -152.5t-40.5 -112.5h282v550h-213z"></glyph><glyph glyph-name="uni0415" unicode="Е" d="M441 41q0 -17 -11.5 -29t-28.5 -12h-265q-25 0 -44 10t-19 37v611q0 17 13.5 32t33.5 15h271q17 0 28.5 -11.5t11.5 -28.5t-11.5 -27.5t-28.5 -10.5h-238v-234h219q15 0 27 -11t12 -28t-11 -28t-28 -11h-219v-237h248q16 0 28 -11t12 -26z"></glyph><glyph glyph-name="uni0416" unicode="Ж" d="M413 675v-283h46l191 304q13 19 33 19q18 0 28 -14.5t10 -28.5q0 -10 -5 -19l-185 -301l185 -300q5 -9 5 -19q0 -14 -10 -28.5t-28 -14.5q-20 0 -33 19l-191 305h-46v-283q0 -17 -11.5 -29t-28.5 -12t-28.5 12t-11.5 29v283h-46l-191 -305q-13 -19 -33 -19 q-18 0 -28 14.5t-10 28.5q0 10 5 19l184 300l-184 301q-5 9 -5 19q0 14 10 28.5t28 14.5q20 0 33 -19l190 -304h47v283q0 16 11.5 28t28.5 12t28.5 -12t11.5 -28z"></glyph><glyph glyph-name="uni0417" unicode="З" d="M444 194q0 -41 -15 -78t-43 -65t-68.5 -44.5t-90.5 -16.5q-27 0 -61.5 5.5t-64.5 16t-50.5 26t-20.5 36.5q0 15 10.5 25.5t24.5 10.5q5 0 9 -1.5t11 -5.5q27 -16 56.5 -28.5t74.5 -12.5q75 0 112 38t37 93q0 35 -13.5 58.5t-37 38.5t-55 22t-67.5 9q-8 0 -17 1.5t-16 5 t-11.5 11t-4.5 20.5q0 14 5 21.5t12 11t15 4t14 1.5q29 3 57.5 10.5t51.5 22.5t37.5 38.5t14.5 57.5q0 21 -6.5 42t-21 37.5t-38 27t-58.5 10.5q-24 0 -47.5 -5t-43.5 -15q-17 -8 -31.5 -18t-28.5 -10q-13 0 -23.5 9.5t-10.5 24.5q0 19 18.5 35t47 27t62 17.5t62.5 6.5 q49 0 85.5 -16.5t61 -43.5t36.5 -61t12 -69q0 -60 -32.5 -99.5t-86.5 -62.5q60 -20 98.5 -60.5t38.5 -108.5z"></glyph><glyph glyph-name="uni0418" unicode="И" d="M117 -10q-20 0 -32 13t-12 31v640q0 17 11 29t28 12t29 -12t12 -29v-510l278 527q6 11 17.5 17.5t24.5 6.5q19 0 31 -12.5t12 -31.5v-640q0 -17 -11 -29t-28 -12t-29 12t-12 29v510l-278 -528q-6 -11 -17.5 -17t-23.5 -6z"></glyph><glyph glyph-name="uni0419" unicode="Й" d="M117 -10q-20 0 -32 13t-12 31v640q0 17 11 29t28 12t29 -12t12 -29v-510l278 527q6 11 17.5 17.5t24.5 6.5q19 0 31 -12.5t12 -31.5v-640q0 -17 -11 -29t-28 -12t-29 12t-12 29v510l-278 -528q-6 -11 -17.5 -17t-23.5 -6zM294 834q17 0 33 9t32 32q5 8 13.5 12t16.5 4 q13 0 22 -8.5t4 -28.5t-18 -35.5t-30.5 -25.5t-36.5 -15t-36 -5t-36 5t-36.5 15t-31 25.5t-18.5 35.5t4.5 28.5t22.5 8.5q8 0 16.5 -4t13.5 -12q16 -23 32 -32t33 -9z"></glyph><glyph glyph-name="uni041A" unicode="К" d="M153 675v-283h58l209 304q13 19 33 19q18 0 28 -14.5t10 -28.5q0 -10 -5 -19l-210 -301l210 -300q5 -9 5 -19q0 -14 -10 -28.5t-28 -14.5q-20 0 -33 19l-210 305h-57v-283q0 -17 -11.5 -29t-28.5 -12t-28.5 12t-11.5 29v644q0 16 11.5 28t28.5 12t28.5 -12t11.5 -28z"></glyph><glyph glyph-name="uni041B" unicode="Л" d="M536 31q-1 -17 -12.5 -28t-27.5 -11q-17 0 -28.5 11t-11.5 28v597h-214l-31 -459q-5 -81 -34 -129t-91 -48q-15 0 -28.5 1t-24 4.5t-17 11.5t-6.5 23q0 22 11.5 31.5t25.5 9.5q10 0 13.5 -1.5t14.5 -1.5q27 0 40 22.5t17 70.5l36 504q2 22 14.5 30.5t23.5 8.5h290 q17 0 28.5 -11.5t11.5 -27.5v-636z"></glyph><glyph glyph-name="uni041C" unicode="М" d="M624 673v-644q0 -16 -11.5 -27.5t-27.5 -11.5q-17 0 -29 11.5t-12 27.5v487l-161 -344q-12 -24 -39 -24q-26 0 -38 24l-161 344v-487q0 -16 -12.5 -27.5t-29.5 -11.5q-16 0 -27 11.5t-11 27.5v644q0 18 12 30t30 12q29 0 43 -26l195 -418l195 419q14 25 42 25 q18 0 30 -12.5t12 -29.5z"></glyph><glyph glyph-name="uni041D" unicode="Н" d="M506 31q0 -17 -11.5 -29t-28.5 -12q-16 0 -28 12t-12 29v283h-273v-283q0 -17 -11.5 -29t-28.5 -12t-28.5 12t-11.5 29v644q0 16 11.5 28t28.5 12t28.5 -12t11.5 -28v-283h273v283q0 16 12 28t28 12t28 -12t12 -28v-644z"></glyph><glyph glyph-name="uni041E" unicode="О" d="M275 -10q-57 0 -100.5 20t-72 54.5t-43 81.5t-14.5 100v214q0 52 12.5 98.5t40.5 81t71.5 55t105.5 20.5t105.5 -20.5t71.5 -55t40.5 -81t12.5 -98.5v-214q0 -53 -14.5 -100t-43 -81.5t-72 -54.5t-100.5 -20zM275 637q-41 0 -69.5 -12.5t-46.5 -36t-26 -56t-8 -72.5v-214 q0 -79 36.5 -128.5t113.5 -49.5t113.5 49.5t36.5 128.5v214q0 40 -8 72.5t-26 56t-46.5 36t-69.5 12.5z"></glyph><glyph glyph-name="uni041F" unicode="П" d="M506 31q0 -17 -11.5 -29t-28.5 -12q-16 0 -28 12t-12 29v597h-273v-597q0 -17 -11.5 -29t-28.5 -12t-28.5 12t-11.5 29v635q0 16 11.5 28t28.5 12h353q16 0 28 -12t12 -28v-635z"></glyph><glyph glyph-name="uni0420" unicode="Р" d="M268 260h-115v-228q0 -17 -11.5 -29.5t-28.5 -12.5q-16 0 -28 12.5t-12 29.5v625q0 20 14 34t34 14h147q62 0 105 -18.5t69.5 -49.5t38.5 -71.5t12 -84.5q0 -107 -61 -164t-164 -57zM153 627v-289h115q72 0 108.5 35t36.5 109q0 27 -6 53t-22 46.5t-44.5 33t-72.5 12.5 h-115z"></glyph><glyph glyph-name="uni0421" unicode="С" d="M45 246v214q0 58 13.5 105t41.5 80.5t70 51.5t100 18q34 0 66 -7t56.5 -18.5t39.5 -27t15 -33.5q0 -14 -10 -24.5t-26 -10.5q-11 0 -17.5 4.5t-18.5 12.5q-44 31 -100 31q-42 0 -71 -12.5t-46.5 -36.5t-25 -57.5t-7.5 -75.5v-214q0 -42 7.5 -75.5t25 -57.5t46.5 -36.5 t71 -12.5q56 0 100 31q13 8 19 12.5t17 4.5q16 0 26 -10.5t10 -24.5q0 -18 -15 -33.5t-39.5 -27t-56.5 -18.5t-66 -7q-58 0 -100 18t-70 51.5t-41.5 80.5t-13.5 105z"></glyph><glyph glyph-name="uni0422" unicode="Т" d="M201 30v597h-136q-17 0 -28.5 11.5t-11.5 27.5q0 13 11.5 26t28.5 13h352q16 0 28.5 -11t12.5 -28q0 -16 -12 -27.5t-29 -11.5h-136v-597q0 -16 -11.5 -28t-28.5 -12t-28.5 12t-11.5 28z"></glyph><glyph glyph-name="uni0423" unicode="У" d="M476 664l-162 -436q-18 -52 -35.5 -95t-41.5 -74t-57 -48.5t-82 -18.5q-17 0 -28.5 10.5t-11.5 27.5q0 14 10 25t27 12q47 2 73 24t48 76l-189 498q-2 2 -2 6.5v7.5q0 16 11 26t28 10q11 0 20.5 -6.5t14.5 -19.5l155 -418l149 418q5 13 15 19.5t21 6.5q15 0 27 -11 t12 -28q0 -8 -2 -12z"></glyph><glyph glyph-name="uni0424" unicode="Ф" d="M335 30v130h-65q-103 0 -164 57t-61 164q0 44 12 84.5t38.5 72t69.5 50t105 18.5h65v69q0 16 12.5 28t27.5 12q18 0 29 -12t11 -28v-69h65q62 0 105 -18.5t69.5 -50t38.5 -72t12 -84.5q0 -107 -61 -164t-164 -57h-65v-130q0 -16 -11.5 -28t-28.5 -12t-28.5 12t-11.5 28z M480 528h-65v-290h65q72 0 108.5 35t36.5 109q0 27 -6 53t-22 47t-44.5 33.5t-72.5 12.5zM270 238h65v290h-65q-44 0 -72.5 -12.5t-44.5 -33.5t-22 -47t-6 -53q0 -74 36.5 -109t108.5 -35z"></glyph><glyph glyph-name="uni0425" unicode="Х" d="M241 303l-159 -284q-5 -10 -14.5 -19.5t-23.5 -9.5q-15 0 -26.5 12.5t-11.5 28.5q0 6 2 12t4 10l182 314l-167 287q-5 10 -5 22q0 15 11 27t26 12q14 0 24.5 -10.5t18.5 -24.5l139 -249l139 249q7 11 18 23t26 12q14 0 25 -11.5t11 -28.5q0 -11 -5 -21l-167 -287 l182 -314q2 -4 4 -10t2 -12q0 -16 -11.5 -28.5t-25.5 -12.5t-23.5 9t-15.5 20z"></glyph><glyph glyph-name="uni0426" unicode="Ц" d="M113 0q-17 0 -28.5 12t-11.5 28v634q0 17 11.5 29t28.5 12t28.5 -12t11.5 -29v-596h273v596q0 17 12 29t28 12q17 0 28.5 -12t11.5 -29v-596h40q16 0 28 -12t12 -28v-157q0 -17 -12 -29t-28 -12t-28 12t-12 29v119h-37h-3h-353z"></glyph><glyph glyph-name="uni0427" unicode="Ч" d="M393 673q0 17 11.5 29.5t28.5 12.5q16 0 28 -12.5t12 -29.5v-641q0 -17 -12 -29.5t-28 -12.5q-17 0 -28.5 12.5t-11.5 29.5v254q-31 -14 -65 -20t-65 -6q-100 0 -155 57t-55 164v192q0 17 11.5 29.5t28.5 12.5q16 0 28 -12.5t12 -29.5v-191q0 -78 34 -111t103 -33 q32 0 64.5 6.5t58.5 20.5v308z"></glyph><glyph glyph-name="uni0428" unicode="Ш" d="M686 674v-634q0 -16 -12 -28t-28 -12h-533q-17 0 -28.5 12t-11.5 28v634q0 17 11.5 29t28.5 12t28.5 -12t11.5 -29v-596h186v597q0 16 11.5 28t28.5 12t28.5 -12t11.5 -28v-597h187v596q0 17 12 29t28 12q17 0 28.5 -12t11.5 -29z"></glyph><glyph glyph-name="uni0429" unicode="Щ" d="M686 674v-596h40q16 0 28 -12t12 -28v-157q0 -17 -11.5 -29t-28.5 -12q-16 0 -28 12t-12 29v119h-573q-17 0 -28.5 12t-11.5 28v634q0 17 11.5 29t28.5 12t28.5 -12t11.5 -29v-596h186v597q0 16 11.5 28t28.5 12t28.5 -12t11.5 -28v-597h187v596q0 17 12 29t28 12 q17 0 28.5 -12t11.5 -29z"></glyph><glyph glyph-name="uni042A" unicode="Ъ" d="M192 628h-137q-17 0 -28 11t-11 28q0 16 11 27.5t28 11.5h172q20 0 32.5 -14t12.5 -31v-215h115q103 0 164 -57t61 -164q0 -44 -12 -84.5t-38.5 -72t-69.5 -50t-105 -18.5h-147q-20 0 -34 14t-14 34v580zM387 78q44 0 72.5 12.5t44.5 33.5t22 47t6 53q0 74 -36.5 109 t-108.5 35h-115v-290h115z"></glyph><glyph glyph-name="uni042B" unicode="Ы" d="M268 446q103 0 164 -57t61 -164q0 -44 -12 -84.5t-38.5 -72t-69.5 -50t-105 -18.5h-147q-20 0 -34 14t-14 34v625q0 17 12 29.5t28 12.5q17 0 28.5 -12.5t11.5 -29.5v-227h115zM153 78h115q44 0 72.5 12.5t44.5 33.5t22 47t6 53q0 74 -36.5 109t-108.5 35h-115v-290z M571 30v645q0 16 11.5 28t28.5 12t28.5 -12t11.5 -28v-645q0 -16 -11.5 -28t-28.5 -12t-28.5 12t-11.5 28z"></glyph><glyph glyph-name="uni042C" unicode="Ь" d="M268 446q103 0 164 -57t61 -164q0 -44 -12 -84.5t-38.5 -72t-69.5 -50t-105 -18.5h-147q-20 0 -34 14t-14 34v625q0 17 12 29.5t28 12.5q17 0 28.5 -12.5t11.5 -29.5v-227h115zM153 78h115q44 0 72.5 12.5t44.5 33.5t22 47t6 53q0 74 -36.5 109t-108.5 35h-115v-290z"></glyph><glyph glyph-name="uni042D" unicode="Э" d="M452 246q0 -58 -13.5 -105t-41 -80.5t-70 -51.5t-100.5 -18q-34 0 -66 7t-56.5 18.5t-39.5 27t-15 33.5q0 14 10 24.5t26 10.5q11 0 17 -4.5t19 -12.5q44 -31 100 -31q42 0 71 12.5t46.5 36.5t25 57.5t7.5 75.5v68h-186q-17 0 -27.5 11.5t-10.5 28.5t11.5 28t26.5 11h186 v67q0 42 -7.5 75.5t-25 57.5t-46.5 36.5t-71 12.5q-56 0 -100 -31q-12 -8 -18.5 -12.5t-17.5 -4.5q-16 0 -26 10.5t-10 24.5q0 18 15 33.5t39.5 27t56.5 18.5t66 7q58 0 100.5 -18t70 -51.5t41 -80.5t13.5 -105v-214z"></glyph><glyph glyph-name="uni042E" unicode="Ю" d="M493 -10q-55 0 -96 19.5t-68.5 52.5t-41.5 78t-14 96v79h-120v-284q0 -17 -11.5 -29t-28.5 -12t-28.5 12t-11.5 29v644q0 16 11.5 28t28.5 12t28.5 -12t11.5 -28v-283h120v78q0 50 12 94.5t38.5 78t68.5 53t101 19.5t101 -19.5t68.5 -53t38.5 -78t12 -94.5v-234 q0 -51 -14 -96t-41.5 -78t-68.5 -52.5t-96 -19.5zM493 637q-77 0 -108.5 -46t-31.5 -121v-234q0 -74 34 -121t106 -47t106 47t34 121v234q0 75 -31.5 121t-108.5 46z"></glyph><glyph glyph-name="uni042F" unicode="Я" d="M70 505q0 37 11 73t36.5 64.5t67 46t103.5 17.5h154q19 0 32.5 -14t13.5 -34v-626q0 -17 -11 -29.5t-28 -12.5t-29 12.5t-12 29.5v278h-96l-176 -300q-11 -19 -33 -19q-12 0 -27.5 11t-15.5 27q0 13 5 23l160 263q-72 14 -113.5 62t-41.5 128zM150 505q0 -58 35 -88 t101 -30h122v241h-116q-43 0 -71 -11t-43.5 -28.5t-21.5 -39.5t-6 -44z"></glyph><glyph glyph-name="uni0430" unicode="а" d="M322 338q0 107 -107 107q-26 0 -42.5 -6t-33.5 -15q-2 -1 -10 -4.5t-16 -3.5q-14 0 -20.5 11t-7.5 22q-1 17 10.5 29.5t32 20.5t46 11.5t51.5 3.5q94 0 134.5 -51t40.5 -151v-220q0 -30 18 -30q2 0 3.5 0.5t4.5 0.5q14 0 21.5 -10.5t7.5 -23.5q0 -19 -14 -26.5t-31 -7.5 q-25 0 -44.5 13.5t-30.5 36.5q-58 -53 -137 -53q-78 0 -115.5 41.5t-37.5 109.5v4q0 148 176 148q53 0 101 -14v57zM220 229q-31 0 -50 -6.5t-29.5 -18t-14.5 -26.5t-4 -32v-4q0 -35 18.5 -57.5t69.5 -22.5q32 0 59 10.5t53 33.5v108q-25 8 -52 11.5t-50 3.5z"></glyph><glyph glyph-name="uni0431" unicode="б" d="M45 477q0 96 46.5 150.5t151.5 65.5q14 2 22 2t18 2t24.5 7t39.5 17q2 1 5.5 2t8.5 1q15 0 25 -10.5t10 -25.5q0 -19 -16.5 -31t-40.5 -18.5t-50 -9.5t-45 -5q-16 -1 -37 -5.5t-39.5 -18.5t-31.5 -42t-13 -76v-51q20 26 51 40.5t73 14.5q41 0 72.5 -13.5t54 -37.5 t34 -56.5t11.5 -70.5v-138q0 -37 -12 -69.5t-35.5 -56.5t-58.5 -38t-81 -14t-81 14t-58.5 38t-35.5 56.5t-12 69.5v307zM232 64q54 0 81.5 28t27.5 78v139q0 49 -25 77t-79 28q-53 0 -82.5 -26.5t-31.5 -73.5v-144q0 -50 27.5 -78t81.5 -28z"></glyph><glyph glyph-name="uni0432" unicode="в" d="M412 364q0 -38 -16.5 -65t-53.5 -41q42 -15 61 -44.5t19 -71.5q0 -63 -41 -102.5t-125 -39.5h-144q-17 0 -28 11.5t-11 27.5v427q0 16 11 27.5t28 11.5h134q85 0 125.5 -39.5t40.5 -101.5zM345 145q0 14 -4 28t-15 25t-31 18t-52 7h-92v-156h103q45 0 68 18.5t23 59.5z M151 438v-149h95q28 0 45.5 6t27 16t13 23t3.5 26q0 41 -23 59.5t-68 18.5h-93z"></glyph><glyph glyph-name="uni0433" unicode="г" d="M151 435v-404q0 -17 -11 -28t-28 -11t-28 11t-11 28v439q0 15 10.5 25t25.5 10h225q14 0 25 -10t11 -25t-10.5 -25t-25.5 -10h-183z"></glyph><glyph glyph-name="uni0434" unicode="д" d="M410 505q17 0 28 -11.5t11 -27.5v-400h27q17 0 28 -11t11 -28v-128q0 -17 -11 -28t-28 -11t-28 11t-11 28v101h-336v-101q0 -17 -11 -28t-28 -11t-28 11t-11 28v128q0 17 11 28t28 11h19q23 23 35.5 74t16.5 123l9 203q2 22 14.5 30.5t23.5 8.5h230zM206 263 q-2 -63 -13 -112.5t-32 -84.5h210v373h-158z"></glyph><glyph glyph-name="uni0435" unicode="е" d="M232 61q32 0 55 8t49 20q2 1 5.5 2t8.5 1q15 0 25 -10.5t10 -24.5q0 -18 -17.5 -30.5t-43 -20t-53.5 -11t-48 -3.5q-42 0 -75.5 12.5t-56 35t-34.5 53t-12 65.5v187q0 36 12 67t35 53.5t57 35.5t79 13q84 0 125 -44t41 -119q0 -69 -39.5 -108.5t-129.5 -39.5 q-23 0 -49.5 2t-52.5 7v-59q0 -42 27.5 -67t81.5 -25zM317 351q0 49 -23.5 70.5t-67.5 21.5q-49 0 -76 -24.5t-27 -66.5v-76q28 -4 59 -5.5t46 -1.5q29 0 46 7t27 18.5t13 26.5t3 30z"></glyph><glyph glyph-name="uni0436" unicode="ж" d="M343 31q0 -17 -11 -28t-28 -11t-28 11t-11 28v197h-37l-134 -217q-13 -19 -32 -19q-16 0 -26 9t-11 24q0 5 1.5 11.5t4.5 11.5l125 203l-125 203q-4 5 -5 11.5t-1 11.5q1 15 11.5 24t25.5 9q20 0 32 -19l121 -197h50v178q0 16 11 27.5t28 11.5t28 -11.5t11 -27.5v-178h49 l122 197q10 19 32 19q16 0 26 -9t11 -24q0 -5 -1.5 -11.5t-4.5 -11.5l-125 -203l125 -203q3 -5 4.5 -11.5t1.5 -11.5q-1 -15 -11.5 -24t-25.5 -9q-20 0 -32 19l-134 217h-37v-197z"></glyph><glyph glyph-name="uni0437" unicode="з" d="M354 371q0 -45 -22 -74t-73 -39q56 -11 80.5 -42t24.5 -80q0 -66 -42 -105t-129 -39q-19 0 -45.5 2.5t-50.5 9.5t-41 18t-17 29q0 11 8.5 23t31.5 12q5 0 5.5 -0.5t2.5 -1.5q19 -8 47 -15.5t62 -7.5q45 0 68.5 18t23.5 62q0 11 -3 24t-14.5 25t-35 21t-64.5 11 q-16 1 -32.5 6t-16.5 28q0 12 4.5 18t11.5 9t15 4t15 2q37 3 59 13t33 23t14.5 27t3.5 24q0 34 -22 51.5t-70 17.5q-29 0 -48 -5.5t-35 -12.5q-10 -5 -18 -5q-16 0 -26 10.5t-10 24.5q0 16 14.5 27t35.5 17.5t45.5 9.5t44.5 3q83 0 124 -40t41 -103z"></glyph><glyph glyph-name="uni0438" unicode="и" d="M117 -10q-20 0 -32 13t-12 31v437q0 17 10.5 29t27.5 12t28.5 -12t11.5 -29v-337l222 354q13 24 41 24q19 0 30.5 -12.5t11.5 -31.5v-437q0 -17 -11 -29t-28 -12t-28 12t-11 29v337l-221 -355q-15 -23 -40 -23z"></glyph><glyph glyph-name="uni0439" unicode="й" d="M117 -10q-20 0 -32 13t-12 31v437q0 17 10.5 29t27.5 12t28.5 -12t11.5 -29v-337l222 354q13 24 41 24q19 0 30.5 -12.5t11.5 -31.5v-437q0 -17 -11 -29t-28 -12t-28 12t-11 29v337l-221 -355q-15 -23 -40 -23zM265 633q17 0 33 9t32 32q5 8 13.5 12t16.5 4q13 0 22 -8.5 t4 -28.5t-18 -35.5t-30.5 -25.5t-36.5 -15t-36 -5t-36 5t-36.5 15t-31 25.5t-18.5 35.5t4.5 28.5t22.5 8.5q8 0 16.5 -4t13.5 -12q16 -23 32 -32t33 -9z"></glyph><glyph glyph-name="uni043A" unicode="к" d="M151 31q0 -17 -11 -28t-28 -11t-28 11t-11 28v441q0 16 11 27.5t28 11.5t28 -11.5t11 -27.5v-178h61l130 197q12 19 32 19q15 0 25.5 -9t11.5 -24q0 -5 -1.5 -11.5t-4.5 -11.5l-137 -203l137 -203q3 -5 4.5 -11.5t1.5 -11.5q-1 -15 -11.5 -24t-25.5 -9q-20 0 -32 19 l-143 217h-48v-197z"></glyph><glyph glyph-name="uni043B" unicode="л" d="M451 31q0 -17 -11 -28t-28 -11t-28 11t-11 28v408h-159l-22 -276q-6 -76 -33.5 -122t-86.5 -46q-23 0 -42 5t-19 30q0 20 11.5 29t25.5 9q5 0 6.5 -0.5t6.5 -0.5q27 0 40 22t17 68l26 309q2 22 14.5 30.5t23.5 8.5h230q17 0 28 -11.5t11 -27.5v-435z"></glyph><glyph glyph-name="uni043C" unicode="м" d="M320 83h-2q-25 0 -38 24l-130 235v-311q0 -16 -11.5 -27.5t-27.5 -11.5t-27 11.5t-11 27.5v438q0 18 12 30t30 12q14 0 23.5 -7t16.5 -19l164 -299l164 299q7 12 16.5 19t23.5 7q18 0 30 -12t12 -30v-438q0 -16 -11.5 -27.5t-26.5 -11.5q-17 0 -28 11.5t-11 27.5v311 l-130 -235q-13 -24 -38 -24z"></glyph><glyph glyph-name="uni043D" unicode="н" d="M151 31q0 -17 -11 -28t-28 -11t-28 11t-11 28v441q0 16 11 27.5t28 11.5t28 -11.5t11 -27.5v-178h212v178q0 16 11 27.5t28 11.5t28 -11.5t11 -27.5v-441q0 -17 -11 -28t-28 -11t-28 11t-11 28v197h-212v-197z"></glyph><glyph glyph-name="uni043E" unicode="о" d="M232 -8q-46 0 -81 14t-58.5 38t-35.5 56.5t-12 69.5v167q0 38 12 70.5t35.5 56.5t58.5 37.5t81 13.5t81 -13.5t58.5 -37.5t35.5 -56.5t12 -70.5v-167q0 -37 -12 -69.5t-35.5 -56.5t-58.5 -38t-81 -14zM232 64q54 0 81.5 28t27.5 78v168q0 49 -27.5 77t-81.5 28t-81.5 -28 t-27.5 -77v-168q0 -50 27.5 -78t81.5 -28z"></glyph><glyph glyph-name="uni043F" unicode="п" d="M151 31q0 -17 -11 -28t-28 -11t-28 11t-11 28v435q0 16 11 27.5t28 11.5h280q17 0 28 -11.5t11 -27.5v-435q0 -17 -11 -28t-28 -11t-28 11t-11 28v408h-202v-408z"></glyph><glyph glyph-name="uni0440" unicode="р" d="M266 -7q-26 0 -55 5t-56 14v-189q0 -16 -10 -27t-29 -11t-29 11t-10 27v546q0 25 -3.5 40.5t-12.5 29.5q-3 5 -5 9t-2 11q0 16 11 25.5t24 9.5q12 0 21.5 -6.5t17.5 -17.5q34 18 70.5 31t75.5 13q79 0 119 -52.5t40 -136.5v-130q0 -45 -8 -82t-27.5 -63.5t-51.5 -41.5 t-80 -15zM155 369v-287q24 -11 53 -16t48 -5q55 0 77 32t22 102v130q0 119 -97 119q-26 0 -54 -9t-54 -25q5 -25 5 -41z"></glyph><glyph glyph-name="uni0441" unicode="с" d="M45 176v151q0 39 10.5 72.5t32 58t55.5 39t81 14.5q18 0 41.5 -3t45.5 -10t37 -18.5t15 -29.5q0 -14 -10 -24t-24 -10q-7 0 -16 3q-18 9 -36.5 16t-44.5 7q-59 0 -84 -30t-25 -85v-151q0 -55 25 -85t84 -30q26 0 44.5 7t36.5 16q9 3 16 3q14 0 24 -10t10 -24 q0 -18 -15 -29.5t-37 -18.5t-45.5 -10t-41.5 -3q-47 0 -81 14.5t-55.5 39t-32 58t-10.5 72.5z"></glyph><glyph glyph-name="uni0442" unicode="т" d="M243 431v-400q0 -17 -11 -28t-28 -11t-28 11t-11 28v400h-104q-15 0 -25.5 10.5t-10.5 26.5t10.5 26.5t25.5 10.5h286q15 0 25.5 -10.5t10.5 -26.5t-10.5 -26.5t-25.5 -10.5h-104z"></glyph><glyph glyph-name="uni0443" unicode="у" d="M397 460l-122 -397q-18 -58 -35.5 -106.5t-41.5 -83.5t-57 -55t-82 -21q-17 0 -28.5 10.5t-11.5 27.5q0 14 10 25t27 12q24 1 41.5 8.5t31.5 23t25.5 39.5t22.5 59l-159 459q-2 2 -2 6.5v7.5q0 16 11 26t28 10q11 0 20.5 -6.5t14.5 -19.5l125 -379l109 379q5 13 15 19.5 t21 6.5q15 0 27 -11t12 -28q0 -4 -2 -12z"></glyph><glyph glyph-name="uni0444" unicode="ф" d="M252 -176v168q-51 0 -89.5 17.5t-65 48t-39.5 72t-13 90.5v76q0 47 13 86.5t39.5 69t65 46t89.5 16.5v172q0 16 11 27.5t28 11.5t28 -11t11 -28v-172h2q51 0 89.5 -16.5t65 -46t39.5 -69t13 -86.5v-76q0 -49 -13 -90.5t-39.5 -72t-65 -48t-89.5 -17.5h-2v-168 q0 -17 -11 -28t-28 -11t-28 11.5t-11 27.5zM332 442h-2v-378h2q65 0 97 42t32 114v77q0 67 -32 106t-97 39zM252 64v378q-65 0 -97 -39t-32 -106v-77q0 -72 32 -114t97 -42z"></glyph><glyph glyph-name="uni0445" unicode="х" d="M261 258l140 -208q5 -7 5 -17q0 -17 -11 -29t-29 -12q-14 0 -21.5 6.5t-16.5 20.5l-113 174l-118 -181q-13 -20 -32 -20q-17 0 -28.5 11t-11.5 28q0 10 5 17l140 208l-131 198q-6 8 -6 17q0 16 11 28t28 12t26.5 -11.5t17.5 -22.5l101 -155l105 163q8 12 15.5 19t21.5 7 t26 -10.5t12 -26.5q0 -11 -5 -19z"></glyph><glyph glyph-name="uni0446" unicode="ц" d="M441 472v-406h27q17 0 28 -11t11 -28v-128q0 -17 -11 -28t-28 -11t-28 11t-11 28v101h-317q-17 0 -28 11.5t-11 27.5v433q0 17 11 28t28 11t28 -11t11 -28v-406h212v406q0 17 11 28t28 11t28 -11t11 -28z"></glyph><glyph glyph-name="uni0447" unicode="ч" d="M123 472v-141q0 -15 3 -30t12.5 -26.5t27 -18.5t45.5 -7q15 0 45.5 4t59.5 10v209q0 16 11 27.5t28 11.5t28 -11.5t11 -27.5v-441q0 -17 -11 -28t-28 -11t-28 11t-11 28v166q-56 -14 -102 -14q-90 0 -129.5 39.5t-39.5 108.5v141q0 16 11 27.5t28 11.5t28 -11.5t11 -27.5 z"></glyph><glyph glyph-name="uni0448" unicode="ш" d="M631 472v-433q0 -16 -11 -27.5t-28 -11.5h-480q-17 0 -28 11.5t-11 27.5v433q0 17 11 28t28 11t28 -11t11 -28v-406h162v406q0 16 11 27.5t28 11.5t28 -11.5t11 -27.5v-406h162v406q0 17 11 28t28 11t28 -11t11 -28z"></glyph><glyph glyph-name="uni0449" unicode="щ" d="M631 472v-406h27q17 0 28 -11t11 -28v-128q0 -17 -11 -28t-28 -11t-28 11t-11 28v101h-507q-17 0 -28 11.5t-11 27.5v433q0 17 11 28t28 11t28 -11t11 -28v-406h162v406q0 16 11 27.5t28 11.5t28 -11.5t11 -27.5v-406h162v406q0 17 11 28t28 11t28 -11t11 -28z"></glyph><glyph glyph-name="uni044A" unicode="ъ" d="M129 435h-83q-15 0 -25.5 10t-10.5 25t11 25t25 10h125q15 0 25.5 -10t10.5 -25v-171h102q96 0 137.5 -39.5t41.5 -112.5q0 -66 -41 -106.5t-125 -40.5h-154q-17 0 -28 11.5t-11 27.5v396zM309 233h-102v-166h113q91 0 91 83q0 15 -4 30t-15 26.5t-31 19t-52 7.5z"></glyph><glyph glyph-name="uni044B" unicode="ы" d="M151 472v-173h102q96 0 137.5 -39.5t41.5 -112.5q0 -66 -41 -106.5t-125 -40.5h-154q-17 0 -28 11.5t-11 27.5v433q0 16 11 27.5t28 11.5t28 -11.5t11 -27.5zM253 233h-102v-166h113q91 0 91 83q0 15 -4 30t-15 26.5t-31 19t-52 7.5zM580 31q0 -17 -11 -28t-28 -11 t-28 11t-11 28v441q0 16 11 27.5t28 11.5t28 -11.5t11 -27.5v-441z"></glyph><glyph glyph-name="uni044C" unicode="ь" d="M151 472v-173h102q96 0 137.5 -39.5t41.5 -112.5q0 -66 -41 -106.5t-125 -40.5h-154q-17 0 -28 11.5t-11 27.5v433q0 16 11 27.5t28 11.5t28 -11.5t11 -27.5zM253 233h-102v-166h113q91 0 91 83q0 15 -4 30t-15 26.5t-31 19t-52 7.5z"></glyph><glyph glyph-name="uni044D" unicode="э" d="M116 219q-15 0 -25.5 10t-10.5 25t10.5 25t25.5 10h153v28q0 60 -22.5 92.5t-76.5 32.5q-29 0 -50 -7t-41 -16q-9 -3 -16 -3q-14 0 -24 10t-10 24q0 18 16.5 29.5t39.5 18.5t48.5 10t44.5 3q44 0 76 -15t52.5 -41t30.5 -61.5t10 -76.5v-131q0 -41 -10 -76.5t-30.5 -61.5 t-52.5 -41t-76 -15q-19 0 -44.5 3t-48.5 10t-39.5 18.5t-16.5 29.5q0 14 10 24t24 10q7 0 16 -3q20 -9 41 -16t50 -7q54 0 76.5 32.5t22.5 92.5v33h-153z"></glyph><glyph glyph-name="uni044E" unicode="ю" d="M151 31q0 -17 -11 -28t-28 -11t-28 11t-11 28v441q0 16 11 27.5t28 11.5t28 -11.5t11 -27.5v-178h110v42q0 38 12 70.5t35.5 56.5t58.5 37.5t81 13.5t81 -13.5t58.5 -37.5t35.5 -56.5t12 -70.5v-166q0 -37 -12 -69.5t-35.5 -56.5t-58.5 -38t-81 -14t-81 14t-58.5 38 t-35.5 56.5t-12 69.5v58h-110v-197zM448 64q54 0 81.5 28t27.5 78v167q0 49 -27.5 77t-81.5 28t-81.5 -28t-27.5 -77v-167q0 -50 27.5 -78t81.5 -28z"></glyph><glyph glyph-name="uni044F" unicode="я" d="M374 -8q-17 0 -28 11.5t-11 27.5v175h-88l-128 -195q-13 -19 -32 -19q-16 0 -26 9t-11 24q0 5 1.5 11.5t4.5 11.5l110 164q-60 13 -86 50t-26 96q0 66 41 106.5t125 40.5h154q17 0 28 -11.5t11 -27.5v-435q0 -16 -11 -27.5t-28 -11.5zM131 355q0 -15 4 -30t15 -26.5 t31 -19t52 -7.5h102v166h-113q-91 0 -91 -83z"></glyph><glyph glyph-name="uni0450" unicode="ѐ" d="M232 61q32 0 55 8t49 20q2 1 5.5 2t8.5 1q15 0 25 -10.5t10 -24.5q0 -18 -17.5 -30.5t-43 -20t-53.5 -11t-48 -3.5q-42 0 -75.5 12.5t-56 35t-34.5 53t-12 65.5v187q0 36 12 67t35 53.5t57 35.5t79 13q84 0 125 -44t41 -119q0 -69 -39.5 -108.5t-129.5 -39.5 q-23 0 -49.5 2t-52.5 7v-59q0 -42 27.5 -67t81.5 -25zM317 351q0 49 -23.5 70.5t-67.5 21.5q-49 0 -76 -24.5t-27 -66.5v-76q28 -4 59 -5.5t46 -1.5q29 0 46 7t27 18.5t13 26.5t3 30zM187 705l78 -81q5 -6 5 -15q0 -16 -10 -25.5t-23 -9.5q-10 0 -17 5t-15 13l-81 86 q-3 4 -4 8.5t-1 8.5q0 14 10 23.5t21 9.5q14 0 20 -6.5t17 -16.5z"></glyph><glyph glyph-name="uni0451" unicode="ё" d="M232 61q32 0 55 8t49 20q2 1 5.5 2t8.5 1q15 0 25 -10.5t10 -24.5q0 -18 -17.5 -30.5t-43 -20t-53.5 -11t-48 -3.5q-42 0 -75.5 12.5t-56 35t-34.5 53t-12 65.5v187q0 36 12 67t35 53.5t57 35.5t79 13q84 0 125 -44t41 -119q0 -69 -39.5 -108.5t-129.5 -39.5 q-23 0 -49.5 2t-52.5 7v-59q0 -42 27.5 -67t81.5 -25zM317 351q0 49 -23.5 70.5t-67.5 21.5q-49 0 -76 -24.5t-27 -66.5v-76q28 -4 59 -5.5t46 -1.5q29 0 46 7t27 18.5t13 26.5t3 30zM369 639q0 -20 -13.5 -34.5t-33.5 -14.5t-34 14.5t-14 34.5q0 19 14 33t34 14t33.5 -13.5 t13.5 -33.5zM200 639q0 -20 -14 -34.5t-34 -14.5t-33 14.5t-13 34.5q0 19 13 33t33 14t34 -13.5t14 -33.5z"></glyph><glyph glyph-name="uni0452" unicode="ђ" d="M429 21v276q0 57 -20 85.5t-67 28.5q-31 0 -62.5 -14t-53.5 -43v-323q0 -17 -10.5 -28t-27.5 -11t-28 11t-11 28v539h-87q-16 0 -26.5 10.5t-10.5 25.5t10.5 26t26.5 11h87v49q0 15 10.5 27t27.5 12t28 -11t11 -28v-49h85q15 0 25.5 -11t10.5 -26t-10.5 -25.5 t-25.5 -10.5h-85v-128q26 20 57.5 31t67.5 11q40 0 69.5 -13.5t48.5 -38.5t28.5 -59t9.5 -75v-273q0 -97 -36.5 -155.5t-104.5 -71.5q-6 -1 -10 -1h-9q-26 0 -33 26q-5 20 7 30.5t23 12.5q41 12 63 47t22 108z"></glyph><glyph glyph-name="uni0453" unicode="ѓ" d="M151 435v-404q0 -17 -11 -28t-28 -11t-28 11t-11 28v439q0 15 10.5 25t25.5 10h225q14 0 25 -10t11 -25t-10.5 -25t-25.5 -10h-183zM194 624l78 81q11 10 17 16.5t20 6.5q11 0 21 -9.5t10 -23.5q0 -4 -1 -8.5t-4 -8.5l-81 -86q-9 -8 -15.5 -13t-16.5 -5q-14 0 -23.5 9.5 t-9.5 25.5q0 9 5 15z"></glyph><glyph glyph-name="uni0454" unicode="є" d="M276 219h-153v-33q0 -60 22.5 -92.5t76.5 -32.5q29 0 50 7t41 16q9 3 16 3q14 0 24 -10t10 -24q0 -18 -16 -29.5t-39.5 -18.5t-49 -10t-44.5 -3q-44 0 -76 15t-52.5 41t-30.5 61.5t-10 76.5v131q0 41 10 76.5t30.5 61.5t52.5 41t76 15q19 0 44.5 -3t49 -10t39.5 -18.5 t16 -29.5q0 -14 -10 -24t-24 -10q-7 0 -16 3q-20 9 -41 16t-50 7q-54 0 -76.5 -32.5t-22.5 -92.5v-28h153q15 0 25.5 -10t10.5 -25t-10.5 -25t-25.5 -10z"></glyph><glyph glyph-name="uni0455" unicode="ѕ" d="M53 370q0 65 41 104.5t121 39.5q20 0 43 -3t43 -9.5t33.5 -17t13.5 -26.5q0 -14 -10 -25t-26 -11q-8 0 -18 5q-16 8 -32.5 13t-43.5 5q-89 0 -89 -70q0 -23 10.5 -37t36.5 -27t58 -23t60.5 -27.5t48 -45.5t19.5 -77q0 -68 -42 -107t-126 -39q-19 0 -44.5 2.5t-48 9 t-38.5 18t-16 28.5q0 13 9.5 24.5t27.5 11.5q5 0 6.5 -0.5t3.5 -1.5q21 -8 45.5 -15.5t54.5 -7.5q42 0 67 17.5t25 56.5q0 27 -11 40.5t-26 21.5q-24 13 -57.5 23t-64 27t-52.5 45.5t-22 77.5z"></glyph><glyph glyph-name="uni0456" unicode="і" d="M170 668q0 -20 -14 -34t-34 -14t-34 14t-14 34t14 34t34 14t34 -14t14 -34zM161 31q0 -17 -11 -28t-28 -11t-28 11t-11 28v441q0 16 11 27.5t28 11.5t28 -11.5t11 -27.5v-441z"></glyph><glyph glyph-name="uni0457" unicode="ї" d="M161 31q0 -17 -11 -28t-28 -11t-28 11t-11 28v441q0 16 11 27.5t28 11.5t28 -11.5t11 -27.5v-441zM269 619q0 -23 -15.5 -38.5t-37.5 -15.5t-37.5 16t-15.5 38q0 21 15.5 36.5t37.5 15.5t37.5 -15t15.5 -37zM81 619q0 -23 -15 -38.5t-38 -15.5q-22 0 -37 16t-15 38 q0 21 15 36.5t37 15.5q23 0 38 -15t15 -37z"></glyph><glyph glyph-name="uni0458" unicode="ј" d="M174 472v-487q0 -79 -36.5 -128t-104.5 -59q-6 -1 -10 -1h-9q-27 0 -33 26q-5 20 7 30.5t23 12.5q41 9 63 34.5t22 80.5v491q0 16 11 27.5t28 11.5t28 -11.5t11 -27.5zM183 668q0 -20 -14 -34t-34 -14t-34 14t-14 34t14 34t34 14t34 -14t14 -34z"></glyph><glyph glyph-name="uni0459" unicode="љ" d="M397 505q17 0 28 -11.5t11 -27.5v-167h82q96 0 137.5 -39.5t41.5 -112.5q0 -66 -41 -106.5t-125 -40.5h-134q-17 0 -28 11.5t-11 27.5v400h-139l-22 -276q-6 -76 -33.5 -122t-86.5 -46q-23 0 -42 5t-19 30q0 20 11.5 29t25.5 9q5 0 6.5 -0.5t6.5 -0.5q27 0 40 22t17 68 l26 309q2 22 14.5 30.5t23.5 8.5h210zM518 233h-82v-166h93q91 0 91 83q0 15 -4 30t-15 26.5t-31 19t-52 7.5z"></glyph><glyph glyph-name="uni045A" unicode="њ" d="M151 31q0 -17 -11 -28t-28 -11t-28 11t-11 28v441q0 16 11 27.5t28 11.5t28 -11.5t11 -27.5v-178h192v178q0 16 11 27.5t28 11.5t28 -11.5t11 -27.5v-178h82q96 0 137.5 -38t41.5 -109q0 -66 -41 -106.5t-125 -40.5h-134q-17 0 -28 11.5t-11 27.5v189h-192v-197zM503 228 h-82v-161h93q91 0 91 83q0 14 -4 28t-15 25t-31 18t-52 7z"></glyph><glyph glyph-name="uni045B" unicode="ћ" d="M347 606q0 -15 -10.5 -25.5t-25.5 -10.5h-85v-128q26 20 57.5 31t67.5 11q80 0 118 -46.5t38 -119.5v-287q0 -17 -11.5 -28t-27.5 -11q-17 0 -28 11t-11 28v286q0 47 -20 70.5t-67 23.5q-31 0 -62.5 -14t-53.5 -43v-323q0 -17 -10.5 -28t-27.5 -11t-28 11t-11 28v539h-87 q-16 0 -26.5 10.5t-10.5 25.5t10.5 26t26.5 11h87v49q0 15 10.5 27t27.5 12t28 -11t11 -28v-49h85q15 0 25.5 -11t10.5 -26z"></glyph><glyph glyph-name="uni045C" unicode="ќ" d="M151 31q0 -17 -11 -28t-28 -11t-28 11t-11 28v441q0 16 11 27.5t28 11.5t28 -11.5t11 -27.5v-178h61l130 197q12 19 32 19q15 0 25.5 -9t11.5 -24q0 -5 -1.5 -11.5t-4.5 -11.5l-137 -203l137 -203q3 -5 4.5 -11.5t1.5 -11.5q-1 -15 -11.5 -24t-25.5 -9q-20 0 -32 19 l-143 217h-48v-197zM214 624l78 81q11 10 17 16.5t20 6.5q11 0 21 -9.5t10 -23.5q0 -4 -1 -8.5t-4 -8.5l-81 -86q-9 -8 -15.5 -13t-16.5 -5q-14 0 -23.5 9.5t-9.5 25.5q0 9 5 15z"></glyph><glyph glyph-name="uni045D" unicode="ѝ" d="M117 -10q-20 0 -32 13t-12 31v437q0 17 10.5 29t27.5 12t28.5 -12t11.5 -29v-337l222 354q13 24 41 24q19 0 30.5 -12.5t11.5 -31.5v-437q0 -17 -11 -29t-28 -12t-28 12t-11 29v337l-221 -355q-15 -23 -40 -23zM233 705l78 -81q5 -6 5 -15q0 -16 -10 -25.5t-23 -9.5 q-10 0 -17 5t-15 13l-81 86q-3 4 -4 8.5t-1 8.5q0 14 10 23.5t21 9.5q14 0 20 -6.5t17 -16.5z"></glyph><glyph glyph-name="uni045E" unicode="ў" d="M397 460l-122 -397q-18 -58 -35.5 -106.5t-41.5 -83.5t-57 -55t-82 -21q-17 0 -28.5 10.5t-11.5 27.5q0 14 10 25t27 12q24 1 41.5 8.5t31.5 23t25.5 39.5t22.5 59l-159 459q-2 2 -2 6.5v7.5q0 16 11 26t28 10q11 0 20.5 -6.5t14.5 -19.5l125 -379l109 379q5 13 15 19.5 t21 6.5q15 0 27 -11t12 -28q0 -4 -2 -12zM206 633q17 0 33 9t32 32q5 8 13.5 12t16.5 4q13 0 22 -8.5t4 -28.5t-18 -35.5t-30.5 -25.5t-36.5 -15t-36 -5t-36 5t-36.5 15t-31 25.5t-18.5 35.5t4.5 28.5t22.5 8.5q8 0 16.5 -4t13.5 -12q16 -23 32 -32t33 -9z"></glyph><glyph glyph-name="uni045F" unicode="џ" d="M291 -101q0 -17 -11 -28t-28 -11t-28 11t-11 28v101h-101q-17 0 -28 11.5t-11 27.5v435q0 17 11 28t28 11t28 -11t11 -28v-408h202v408q0 17 11 28t28 11t28 -11t11 -28v-435q0 -16 -11 -27.5t-28 -11.5h-101v-101z"></glyph><glyph glyph-name="uni0462" unicode="Ѣ" d="M458 617q0 -16 -12 -27.5t-29 -11.5h-176v-152h115q103 0 164 -54t61 -157q0 -42 -12 -81t-38.5 -68.5t-69.5 -47.5t-105 -18h-147q-20 0 -34 14t-14 34v530h-96q-17 0 -28.5 12t-11.5 26t11.5 27t28.5 13h96v69q0 16 11.5 28t28.5 12t28.5 -12t11.5 -28v-69h176 q16 0 28.5 -11t12.5 -28zM241 78h115q44 0 72.5 12t44.5 31t22 43.5t6 49.5q0 134 -145 134h-115v-270z"></glyph><glyph glyph-name="uni0463" unicode="ѣ" d="M347 556q0 -15 -10.5 -25.5t-25.5 -10.5h-84v-171h102q95 0 137 -44.5t42 -125.5t-41 -130t-125 -49h-154q-17 0 -28 11.5t-11 27.5v481h-87q-16 0 -26.5 11t-10.5 26t10.5 25.5t26.5 10.5h87v89q0 17 11 28t28 11t28 -11t11 -28v-89h84q15 0 25.5 -11t10.5 -26zM329 283 h-102v-216h113q91 0 91 111q0 19 -3.5 38t-14.5 34t-31 24t-53 9z"></glyph><glyph glyph-name="uni0490" unicode="Ґ" d="M73 661q0 17 12.5 31t32.5 14h231v91q0 16 11.5 28t28.5 12t28.5 -12t11.5 -28v-130q0 -17 -11 -28t-28 -11h-237v-597q0 -16 -11.5 -28t-28.5 -12t-28.5 12t-11.5 28v630z"></glyph><glyph glyph-name="uni0491" unicode="ґ" d="M295 602q0 17 11 28t28 11t28 -11t11 -28v-128q0 -17 -11 -28t-28 -11h-183v-404q0 -17 -11 -28t-28 -11t-28 11t-11 28v439q0 15 10.5 25t25.5 10h186v97z"></glyph><glyph glyph-name="Wgrave" unicode="Ẁ" d="M503 47l-115 503l-116 -504q-5 -20 -16.5 -38t-36.5 -18q-22 0 -35.5 16.5t-18.5 39.5l-149 619q-1 0 -1 6v5q0 17 14.5 26t30.5 9q12 0 22 -7t14 -22l124 -533l116 508q7 28 16.5 43t35.5 15q24 0 34.5 -16t16.5 -42l116 -508l124 533q10 29 34 29q16 0 32 -8.5 t16 -27.5q0 -1 -2 -11l-149 -618q-5 -22 -17.5 -39t-35.5 -17t-36 17.5t-18 39.5zM380 905l78 -81q5 -6 5 -15q0 -16 -10 -25.5t-23 -9.5q-10 0 -17 5t-15 13l-81 86q-3 4 -4 8.5t-1 8.5q0 14 10 23.5t21 9.5q14 0 20 -6.5t17 -16.5z"></glyph><glyph glyph-name="wgrave" unicode="ẁ" d="M629 465l-115 -428q-7 -23 -17.5 -34t-32.5 -11q-16 0 -28.5 8.5t-17.5 25.5l-90 351l-89 -351q-10 -34 -47 -34q-20 0 -32 12t-18 33l-116 431q-1 2 -1 6q0 14 11 25.5t28 11.5q12 0 22 -7t14 -21l94 -368q23 91 45 180t45 181q4 15 15.5 25t29.5 10q17 0 28 -10t15 -25 q22 -92 45 -181t46 -180l93 368q3 12 13 20t23 8q15 0 26.5 -11t11.5 -28q0 -2 -0.5 -3.5t-0.5 -3.5zM320 705l78 -81q5 -6 5 -15q0 -16 -10 -25.5t-23 -9.5q-10 0 -17 5t-15 13l-81 86q-3 4 -4 8.5t-1 8.5q0 14 10 23.5t21 9.5q14 0 20 -6.5t17 -16.5z"></glyph><glyph glyph-name="Wacute" unicode="Ẃ" d="M503 47l-115 503l-116 -504q-5 -20 -16.5 -38t-36.5 -18q-22 0 -35.5 16.5t-18.5 39.5l-149 619q-1 0 -1 6v5q0 17 14.5 26t30.5 9q12 0 22 -7t14 -22l124 -533l116 508q7 28 16.5 43t35.5 15q24 0 34.5 -16t16.5 -42l116 -508l124 533q10 29 34 29q16 0 32 -8.5 t16 -27.5q0 -1 -2 -11l-149 -618q-5 -22 -17.5 -39t-35.5 -17t-36 17.5t-18 39.5zM317 824l78 81q11 10 17 16.5t20 6.5q11 0 21 -9.5t10 -23.5q0 -4 -1 -8.5t-4 -8.5l-81 -86q-9 -8 -15.5 -13t-16.5 -5q-14 0 -23.5 9.5t-9.5 25.5q0 9 5 15z"></glyph><glyph glyph-name="wacute" unicode="ẃ" d="M629 465l-115 -428q-7 -23 -17.5 -34t-32.5 -11q-16 0 -28.5 8.5t-17.5 25.5l-90 351l-89 -351q-10 -34 -47 -34q-20 0 -32 12t-18 33l-116 431q-1 2 -1 6q0 14 11 25.5t28 11.5q12 0 22 -7t14 -21l94 -368q23 91 45 180t45 181q4 15 15.5 25t29.5 10q17 0 28 -10t15 -25 q22 -92 45 -181t46 -180l93 368q3 12 13 20t23 8q15 0 26.5 -11t11.5 -28q0 -2 -0.5 -3.5t-0.5 -3.5zM257 624l78 81q11 10 17 16.5t20 6.5q11 0 21 -9.5t10 -23.5q0 -4 -1 -8.5t-4 -8.5l-81 -86q-9 -8 -15.5 -13t-16.5 -5q-14 0 -23.5 9.5t-9.5 25.5q0 9 5 15z"></glyph><glyph glyph-name="Wdieresis" unicode="Ẅ" d="M503 47l-115 503l-116 -504q-5 -20 -16.5 -38t-36.5 -18q-22 0 -35.5 16.5t-18.5 39.5l-149 619q-1 0 -1 6v5q0 17 14.5 26t30.5 9q12 0 22 -7t14 -22l124 -533l116 508q7 28 16.5 43t35.5 15q24 0 34.5 -16t16.5 -42l116 -508l124 533q10 29 34 29q16 0 32 -8.5 t16 -27.5q0 -1 -2 -11l-149 -618q-5 -22 -17.5 -39t-35.5 -17t-36 17.5t-18 39.5zM519 839q0 -20 -13.5 -34.5t-33.5 -14.5t-34 14.5t-14 34.5q0 19 14 33t34 14t33.5 -13.5t13.5 -33.5zM350 839q0 -20 -14 -34.5t-34 -14.5t-33 14.5t-13 34.5q0 19 13 33t33 14t34 -13.5 t14 -33.5z"></glyph><glyph glyph-name="wdieresis" unicode="ẅ" d="M629 465l-115 -428q-7 -23 -17.5 -34t-32.5 -11q-16 0 -28.5 8.5t-17.5 25.5l-90 351l-89 -351q-10 -34 -47 -34q-20 0 -32 12t-18 33l-116 431q-1 2 -1 6q0 14 11 25.5t28 11.5q12 0 22 -7t14 -21l94 -368q23 91 45 180t45 181q4 15 15.5 25t29.5 10q17 0 28 -10t15 -25 q22 -92 45 -181t46 -180l93 368q3 12 13 20t23 8q15 0 26.5 -11t11.5 -28q0 -2 -0.5 -3.5t-0.5 -3.5zM459 639q0 -20 -13.5 -34.5t-33.5 -14.5t-34 14.5t-14 34.5q0 19 14 33t34 14t33.5 -13.5t13.5 -33.5zM290 639q0 -20 -14 -34.5t-34 -14.5t-33 14.5t-13 34.5q0 19 13 33 t33 14t34 -13.5t14 -33.5z"></glyph><glyph glyph-name="Ygrave" unicode="Ỳ" d="M238 -10q-17 0 -29 12.5t-12 29.5v245l-178 378q-4 10 -4 19q0 17 12.5 29t28.5 12q9 0 17.5 -4t13.5 -12l151 -329l151 329q5 8 13.5 12t17.5 4q16 0 28.5 -12t12.5 -29q0 -9 -4 -19l-178 -380v-243q0 -17 -12 -29.5t-29 -12.5zM201 905l78 -81q5 -6 5 -15 q0 -16 -10 -25.5t-23 -9.5q-10 0 -17 5t-15 13l-81 86q-3 4 -4 8.5t-1 8.5q0 14 10 23.5t21 9.5q14 0 20 -6.5t17 -16.5z"></glyph><glyph glyph-name="ygrave" unicode="ỳ" d="M397 460l-122 -397q-18 -58 -35.5 -106.5t-41.5 -83.5t-57 -55t-82 -21q-17 0 -28.5 10.5t-11.5 27.5q0 14 10 25t27 12q24 1 41.5 8.5t31.5 23t25.5 39.5t22.5 59l-159 459q-2 2 -2 6.5v7.5q0 16 11 26t28 10q11 0 20.5 -6.5t14.5 -19.5l125 -379l109 379q5 13 15 19.5 t21 6.5q15 0 27 -11t12 -28q0 -4 -2 -12zM198 705l78 -81q5 -6 5 -15q0 -16 -10 -25.5t-23 -9.5q-10 0 -17 5t-15 13l-81 86q-3 4 -4 8.5t-1 8.5q0 14 10 23.5t21 9.5q14 0 20 -6.5t17 -16.5z"></glyph><glyph glyph-name="endash" unicode="–" d="M392 287q0 -15 -11 -25.5t-26 -10.5h-280q-16 0 -26.5 10.5t-10.5 25.5t10.5 26t26.5 11h280q16 0 26.5 -11t10.5 -26z"></glyph><glyph glyph-name="emdash" unicode="—" d="M492 287q0 -15 -11 -25.5t-26 -10.5h-380q-16 0 -26.5 10.5t-10.5 25.5t10.5 26t26.5 11h380q16 0 26.5 -11t10.5 -26z"></glyph><glyph glyph-name="quoteleft" unicode="‘" d="M61 561q0 25 8 54t20 53.5t25 40.5t23 16q8 0 13.5 -3.5t5.5 -13.5q0 -12 -4 -22t-10 -20.5t-12 -22t-11 -27.5q21 -2 35 -17.5t14 -37.5t-15.5 -37.5t-38.5 -15.5q-22 0 -37.5 15.5t-15.5 37.5z"></glyph><glyph glyph-name="quoteright" unicode="’" d="M168 672q0 -25 -8 -54t-20 -53.5t-25 -40.5t-23 -16q-8 0 -13.5 3.5t-5.5 13.5q0 12 4 22t10 20.5t12.5 22t10.5 27.5q-21 2 -35 17.5t-14 37.5t15.5 37.5t38.5 15.5q22 0 37.5 -15.5t15.5 -37.5z"></glyph><glyph glyph-name="quotesinglbase" unicode="‚" d="M168 45q0 -25 -8 -54t-20 -53.5t-25 -40.5t-23 -16q-8 0 -13.5 3.5t-5.5 13.5q0 12 4 22t10 20.5t12.5 22t10.5 27.5q-21 2 -35 17.5t-14 37.5t15.5 37.5t38.5 15.5q22 0 37.5 -15.5t15.5 -37.5z"></glyph><glyph glyph-name="quotedblleft" unicode="“" d="M61 561q0 25 8 54t20 53.5t25 40.5t23 16q8 0 13.5 -3.5t5.5 -13.5q0 -12 -4 -22t-10 -20.5t-12 -22t-11 -27.5q21 -2 35 -17.5t14 -37.5t-15.5 -37.5t-38.5 -15.5q-22 0 -37.5 15.5t-15.5 37.5zM201 561q0 25 8 54t20 53.5t25 40.5t23 16q19 0 19 -17q0 -12 -4 -22 t-10 -20.5t-12 -22t-11 -27.5q21 -2 35 -17.5t14 -37.5t-15.5 -37.5t-38.5 -15.5q-22 0 -37.5 15.5t-15.5 37.5z"></glyph><glyph glyph-name="quotedblright" unicode="”" d="M308 672q0 -25 -8 -54t-20 -53.5t-25 -40.5t-23 -16q-8 0 -13.5 3.5t-5.5 13.5q0 12 4 22t10 20.5t12.5 22t10.5 27.5q-21 2 -35 17.5t-14 37.5t15.5 37.5t38.5 15.5q22 0 37.5 -15.5t15.5 -37.5zM168 672q0 -25 -8 -54t-20 -53.5t-25 -40.5t-23 -16q-19 0 -19 17 q0 12 4 22t10 20.5t12.5 22t10.5 27.5q-21 2 -35 17.5t-14 37.5t15.5 37.5t38.5 15.5q22 0 37.5 -15.5t15.5 -37.5z"></glyph><glyph glyph-name="quotedblbase" unicode="„" d="M308 45q0 -25 -8 -54t-20 -53.5t-25 -40.5t-23 -16q-8 0 -13.5 4t-5.5 13q0 12 4 22t10 20.5t12.5 22t10.5 27.5q-21 2 -35 17.5t-14 37.5q0 23 15.5 38t38.5 15q22 0 37.5 -15.5t15.5 -37.5zM168 45q0 -25 -8 -54t-20 -53.5t-25 -40.5t-23 -16q-19 0 -19 17q0 12 4 22 t10 20.5t12.5 22t10.5 27.5q-21 2 -35 17.5t-14 37.5q0 23 15.5 38t38.5 15q22 0 37.5 -15.5t15.5 -37.5z"></glyph><glyph glyph-name="dagger" unicode="†" d="M441 474q0 -15 -11 -25.5t-25 -10.5h-150v-501q0 -5 -0.5 -11t-1.5 -11q-2 -13 -13 -22t-25 -9t-24.5 9t-13.5 22q-1 5 -1 11v11v501h-150q-4 0 -10 2q-11 3 -18.5 12t-7.5 22q0 15 10.5 25.5t25.5 10.5h150v162v10.5t1 10.5q3 14 13.5 23t24.5 9t25 -9t13 -23 q1 -5 1.5 -10.5t0.5 -10.5v-162h150q5 0 9 -3q11 -2 19 -11.5t8 -21.5z"></glyph><glyph glyph-name="daggerdbl" unicode="‡" d="M509 40q0 -15 -11 -25.5t-26 -10.5h-149v-171q0 -5 -0.5 -9.5t-1.5 -9.5q-3 -13 -13.5 -22t-24.5 -9t-25 9t-13 22q-1 5 -1.5 9.5t-0.5 9.5v171h-149q-16 0 -26.5 10.5t-10.5 25.5q0 16 10.5 26t26.5 10h149v362h-149q-16 0 -26.5 10.5t-10.5 25.5t10.5 26t26.5 11h149 v174q0 4 2 8q2 14 13 23t25 9q17 0 28.5 -11.5t11.5 -28.5v-174h149q15 0 26 -11t11 -26t-11 -25.5t-26 -10.5h-149v-362h149q15 0 26 -10t11 -26z"></glyph><glyph glyph-name="bullet" unicode="•" d="M229 274q0 -32 -23 -55t-55 -23t-54.5 23t-22.5 55t22.5 54.5t54.5 22.5t55 -22.5t23 -54.5z"></glyph><glyph glyph-name="ellipsis" unicode="…" d="M522 44q0 -22 -15.5 -38t-38.5 -16q-22 0 -37.5 16t-15.5 38q0 23 15.5 38.5t37.5 15.5q23 0 38.5 -15.5t15.5 -38.5zM345 44q0 -22 -15.5 -38t-38.5 -16q-22 0 -38 16t-16 38q0 23 16 38.5t38 15.5q23 0 38.5 -15.5t15.5 -38.5zM168 44q0 -22 -15.5 -38t-38.5 -16 q-22 0 -37.5 16t-15.5 38q0 23 15.5 38.5t37.5 15.5q23 0 38.5 -15.5t15.5 -38.5z"></glyph><glyph glyph-name="guilsinglleft" unicode="‹" d="M132 258l140 -208q5 -7 5 -17q0 -17 -11 -29t-29 -12q-14 0 -21.5 6.5t-16.5 20.5l-158 237l152 229q8 12 15.5 19t21.5 7t26 -10.5t12 -26.5q0 -11 -5 -19z"></glyph><glyph glyph-name="guilsinglright" unicode="›" d="M46 50l140 208l-131 197q-5 8 -5 19q0 16 12 26.5t26 10.5t21.5 -7t15.5 -19l152 -229l-158 -237q-9 -14 -16.5 -20.5t-21.5 -6.5q-18 0 -29 12t-11 29q0 10 5 17z"></glyph><glyph glyph-name="fraction" unicode="⁄" d="M217 652l-232 -653q-3 -12 -10.5 -18t-16.5 -4q-8 2 -13.5 10.5t-3.5 19.5v7t1 10l232 651q3 12 10.5 18t16.5 4q8 -2 13.5 -10.5t3.5 -18.5v-8t-1 -8z"></glyph><glyph glyph-name="zerosuperior" unicode="⁰" d="M123 708q-30 0 -42.5 -18.5t-12.5 -49.5v-149q0 -27 14 -44t41 -17q26 0 40.5 17t14.5 44v149q0 31 -13 49.5t-42 18.5zM123 754q54 0 78 -34.5t24 -83.5v-145q0 -45 -25.5 -75.5t-76.5 -30.5t-78 30.5t-27 75.5v145q0 49 25.5 83.5t79.5 34.5z"></glyph><glyph glyph-name="foursuperior" unicode="⁴" d="M204 462v-55q0 -9 -7 -15.5t-17 -6.5q-11 0 -18 6.5t-7 15.5v55h-117q-12 0 -19 7.5t-7 18.5q1 2 1 5q2 5 4 8l96 237q2 6 7.5 10.5t11.5 4.5q9 0 16.5 -7.5t7.5 -18.5q0 -6 -1 -8q-20 -51 -41.5 -105.5t-42.5 -105.5h84v91q0 11 7 17.5t18 6.5q10 0 17 -6.5t7 -17.5v-91 h15q10 0 16.5 -6.5t6.5 -16.5q0 -9 -6.5 -16t-16.5 -7h-15z"></glyph><glyph glyph-name="fivesuperior" unicode="⁵" d="M224 502q0 -21 -6 -42t-18.5 -37.5t-32 -27t-46.5 -10.5q-8 0 -24.5 1.5t-33.5 5.5t-30 11.5t-13 20.5q0 11 6.5 18t17.5 7q6 0 13 -5q9 -5 21.5 -10t32.5 -5q38 0 51.5 22.5t13.5 48.5q0 36 -16.5 53t-40.5 17q-15 0 -32 -10l-13 -8q-4 -2 -7 -4t-9 -2q-10 0 -17.5 7 t-6.5 18l3 146q0 14 9.5 21t19.5 7h118q10 0 18.5 -5.5t8.5 -19.5q0 -12 -8.5 -17t-18.5 -5h-102l-4 -95q12 6 22.5 8t19.5 2q47 0 75.5 -28.5t28.5 -82.5z"></glyph><glyph glyph-name="sixsuperior" unicode="⁶" d="M135 703q-39 0 -53.5 -31.5t-16.5 -76.5q14 8 31 12.5t31 4.5q43 0 72.5 -27.5t29.5 -84.5q0 -48 -26 -81.5t-80 -33.5q-31 0 -52 12.5t-33.5 35.5t-18 54.5t-5.5 68.5q0 94 28.5 143.5t85.5 49.5q6 0 19.5 -1t27 -4.5t24 -10t10.5 -17.5q0 -8 -6.5 -15t-16.5 -7l-12 3 q-8 2 -18 4t-21 2zM64 538v-8q0 -18 2.5 -36t9.5 -31.5t19 -22t30 -8.5q32 0 44.5 21t12.5 46q0 35 -15.5 51t-41.5 16q-14 0 -32 -9t-29 -19z"></glyph><glyph glyph-name="sevensuperior" unicode="⁷" d="M225 718q0 -5 -2 -13l-121 -307q-2 -5 -8.5 -9t-13.5 -4q-8 0 -17 6.5t-7 18.5l1 2q0 3 1 4l113 280h-127q-11 0 -18 6.5t-7 16.5q0 11 7 18.5t18 7.5h158q8 0 15.5 -7.5t7.5 -19.5z"></glyph><glyph glyph-name="eightsuperior" unicode="⁸" d="M235 489q0 -46 -30.5 -75t-81.5 -29q-50 0 -82 28.5t-32 73.5q0 31 16 53t40 36q-20 14 -32.5 32.5t-12.5 46.5q0 43 30 68.5t72 25.5q43 0 71.5 -26t28.5 -67q0 -50 -40 -77q23 -14 38 -36t15 -54zM176 654q0 23 -15.5 36t-37.5 13q-23 0 -38.5 -13t-15.5 -36 q0 -24 16 -38t37 -18q21 5 37.5 20t16.5 36zM188 490q0 26 -21.5 42.5t-45.5 22.5q-25 -8 -44.5 -25t-19.5 -41q0 -26 19 -43t47 -17t46.5 17.5t18.5 43.5z"></glyph><glyph glyph-name="ninesuperior" unicode="⁹" d="M111 429q20 0 33 8.5t21 23.5t11.5 34.5t4.5 41.5q-14 -10 -30 -13.5t-32 -3.5q-43 0 -74 27.5t-31 83.5q0 50 25.5 84t80.5 34q32 0 53 -12.5t33.5 -36t17.5 -56t5 -72.5q0 -94 -27 -140.5t-85 -46.5q-6 0 -19.5 1t-27 4t-24 8.5t-10.5 15.5q-1 14 6.5 21.5t17.5 3.5 l13 -5q12 -5 38 -5zM181 592v8q0 44 -13.5 72t-48.5 28q-31 0 -43 -21t-12 -48q0 -32 15.5 -47.5t41.5 -15.5q17 0 33 7.5t27 16.5z"></glyph><glyph glyph-name="parenleftsuperior" unicode="⁽" d="M76 560q0 -48 10.5 -96.5t36.5 -95.5q4 -8 4 -12q0 -9 -6 -16.5t-17 -7.5q-12 0 -19 11q-29 48 -44 107t-15 110t16 111t43 108q7 14 19 14q11 0 17 -9t6 -18q0 -5 -4 -12l-1 -2q-25 -45 -35.5 -93.5t-10.5 -98.5z"></glyph><glyph glyph-name="parenrightsuperior" unicode="⁾" d="M59 560q0 51 -11 100t-37 94l-1 2q-4 5 -4 10q0 9 6 18t19 9q7 0 11.5 -4t9.5 -10q26 -48 40.5 -105.5t14.5 -113.5q0 -57 -13 -113t-42 -104q-8 -11 -21 -11t-19 7.5t-6 16.5l2 4l5 10q23 43 34.5 91.5t11.5 98.5z"></glyph><glyph glyph-name="zeroinferior" unicode="₀" d="M123 276q-30 0 -42.5 -18.5t-12.5 -49.5v-149q0 -27 14 -44t41 -17q26 0 40.5 17t14.5 44v149q0 31 -13 49.5t-42 18.5zM123 322q54 0 78 -34.5t24 -83.5v-145q0 -45 -25.5 -75.5t-76.5 -30.5t-78 30.5t-27 75.5v145q0 49 25.5 83.5t79.5 34.5z"></glyph><glyph glyph-name="oneinferior" unicode="₁" d="M127 -25v278l-52 -36q-6 -4 -11.5 -6.5t-11.5 -2.5q-10 0 -17 6.5t-7 14.5q0 12 13 22l97 61q8 5 14 5q11 0 18 -7.5t7 -19.5v-315q0 -8 -7 -15t-17 -7q-11 0 -18.5 7t-7.5 15z"></glyph><glyph glyph-name="twoinferior" unicode="₂" d="M227 -21q0 -10 -7 -15.5t-15 -5.5h-162q-12 0 -19.5 6t-7.5 17q0 4 1 9.5t4 11.5q14 34 38.5 61t49.5 51q8 8 21.5 22.5t21.5 23.5q10 9 18 24t8 33q0 26 -14 42.5t-42 16.5q-11 0 -22 -2.5t-22 -6.5l-13 -6l-9 -4.5t-10 -2.5q-8 0 -16.5 6t-8.5 15q0 8 2 11.5t4 5.5 q26 17 49 23.5t46 6.5q50 0 76.5 -28.5t26.5 -70.5q0 -32 -10 -55t-24 -40q-7 -8 -15.5 -16.5l-16.5 -16.5l-10 -10q-21 -20 -40 -40t-31 -41h127q8 0 15 -7t7 -18z"></glyph><glyph glyph-name="threeinferior" unicode="₃" d="M210 267l-78 -100q39 -3 65.5 -29t26.5 -71q0 -19 -6 -39.5t-18.5 -37t-32 -27t-47.5 -10.5q-7 0 -24 1.5t-33.5 5.5t-29.5 11.5t-13 20.5q0 11 6.5 18t17.5 7q3 0 15 -6q9 -5 21 -9.5t31 -4.5t31.5 6.5t20 16t10.5 22t3 24.5q0 32 -18 46t-44 14q-11 0 -17 -3l-3 -2 q-1 -1 -8 -1q-13 0 -19 12.5t2 23.5l82 108h-99q-11 0 -18.5 6t-7.5 16q0 11 7.5 19t18.5 8h137q24 0 24 -29q0 -5 -0.5 -10t-2.5 -7z"></glyph><glyph glyph-name="fourinferior" unicode="₄" d="M204 30v-55q0 -9 -7 -15.5t-17 -6.5q-11 0 -18 6.5t-7 15.5v55h-117q-12 0 -19 7.5t-7 18.5q1 2 1 5q2 5 4 8l96 237q2 6 7.5 10.5t11.5 4.5q9 0 16.5 -7.5t7.5 -18.5q0 -6 -1 -8q-20 -51 -41.5 -105.5t-42.5 -105.5h84v91q0 11 7 17.5t18 6.5q10 0 17 -6.5t7 -17.5v-91 h15q10 0 16.5 -6.5t6.5 -16.5q0 -9 -6.5 -16t-16.5 -7h-15z"></glyph><glyph glyph-name="fiveinferior" unicode="₅" d="M224 70q0 -21 -6 -42t-18.5 -37.5t-32 -27t-46.5 -10.5q-8 0 -24.5 1.5t-33.5 5.5t-30 11.5t-13 20.5q0 11 6.5 18t17.5 7q6 0 13 -5q9 -5 21.5 -10t32.5 -5q38 0 51.5 22.5t13.5 48.5q0 36 -16.5 53t-40.5 17q-15 0 -32 -10l-13 -8q-4 -2 -7 -4t-9 -2q-10 0 -17.5 7 t-6.5 18l3 146q0 14 9.5 21t19.5 7h118q10 0 18.5 -5.5t8.5 -19.5q0 -12 -8.5 -17t-18.5 -5h-102l-4 -95q12 6 22.5 8t19.5 2q47 0 75.5 -28.5t28.5 -82.5z"></glyph><glyph glyph-name="sixinferior" unicode="₆" d="M135 271q-39 0 -53.5 -31.5t-16.5 -76.5q14 8 31 12.5t31 4.5q43 0 72.5 -27.5t29.5 -84.5q0 -48 -26 -81.5t-80 -33.5q-31 0 -52 12.5t-33.5 35.5t-18 54.5t-5.5 68.5q0 94 28.5 143.5t85.5 49.5q6 0 19.5 -1t27 -4.5t24 -10t10.5 -17.5q0 -8 -6.5 -15t-16.5 -7l-12 3 q-8 2 -18 4t-21 2zM64 106v-8q0 -18 2.5 -36t9.5 -31.5t19 -22t30 -8.5q32 0 44.5 21t12.5 46q0 35 -15.5 51t-41.5 16q-14 0 -32 -9t-29 -19z"></glyph><glyph glyph-name="seveninferior" unicode="₇" d="M225 286q0 -5 -2 -13l-121 -307q-2 -5 -8.5 -9t-13.5 -4q-8 0 -17 6.5t-7 18.5l1 2q0 3 1 4l113 280h-127q-11 0 -18 6.5t-7 16.5q0 11 7 18.5t18 7.5h158q8 0 15.5 -7.5t7.5 -19.5z"></glyph><glyph glyph-name="eightinferior" unicode="₈" d="M235 57q0 -46 -30.5 -75t-81.5 -29q-50 0 -82 28.5t-32 73.5q0 31 16 53t40 36q-20 14 -32.5 32.5t-12.5 46.5q0 43 30 68.5t72 25.5q43 0 71.5 -26t28.5 -67q0 -50 -40 -77q23 -14 38 -36t15 -54zM176 222q0 23 -15.5 36t-37.5 13q-23 0 -38.5 -13t-15.5 -36 q0 -24 16 -38t37 -18q21 5 37.5 20t16.5 36zM188 58q0 26 -21.5 42.5t-45.5 22.5q-25 -8 -44.5 -25t-19.5 -41q0 -26 19 -43t47 -17t46.5 17.5t18.5 43.5z"></glyph><glyph glyph-name="nineinferior" unicode="₉" d="M111 -3q20 0 33 8.5t21 23.5t11.5 34.5t4.5 41.5q-14 -10 -30 -13.5t-32 -3.5q-43 0 -74 27.5t-31 83.5q0 50 25.5 84t80.5 34q32 0 53 -12.5t33.5 -36t17.5 -56t5 -72.5q0 -94 -27 -140.5t-85 -46.5q-6 0 -19.5 1t-27 4t-24 8.5t-10.5 15.5q-1 14 6.5 21.5t17.5 3.5 l13 -5q12 -5 38 -5zM181 160v8q0 44 -13.5 72t-48.5 28q-31 0 -43 -21t-12 -48q0 -32 15.5 -47.5t41.5 -15.5q17 0 33 7.5t27 16.5z"></glyph><glyph glyph-name="parenleftinferior" unicode="₍" d="M76 128q0 -48 10.5 -96.5t36.5 -95.5q4 -8 4 -12q0 -9 -6 -16.5t-17 -7.5q-12 0 -19 11q-29 48 -44 107t-15 110t16 111t43 108q7 14 19 14q11 0 17 -9t6 -18q0 -5 -4 -12l-1 -2q-25 -45 -35.5 -93.5t-10.5 -98.5z"></glyph><glyph glyph-name="parenrightinferior" unicode="₎" d="M59 128q0 51 -11 100t-37 94l-1 2q-4 5 -4 10q0 9 6 18t19 9q7 0 11.5 -4t9.5 -10q26 -48 40.5 -105.5t14.5 -113.5q0 -57 -13 -113t-42 -104q-8 -11 -21 -11t-19 7.5t-6 16.5l2 4l5 10q23 43 34.5 91.5t11.5 98.5z"></glyph><glyph glyph-name="Euro" unicode="€" d="M49 454h46v36q0 102 47.5 163.5t147.5 61.5q34 0 66 -7t56.5 -18.5t39.5 -27t15 -33.5q0 -14 -10 -24.5t-26 -10.5q-11 0 -17 4.5t-19 12.5q-44 31 -100 31q-68 0 -94 -40.5t-26 -111.5v-36h182q15 0 27 -10.5t12 -26.5t-11 -26.5t-28 -10.5h-182v-56h142q15 0 27 -10.5 t12 -26.5t-11 -26.5t-28 -10.5h-142v-34q0 -70 26 -111t94 -41q56 0 100 31q13 8 19 12.5t17 4.5q16 0 26 -10.5t10 -24.5q0 -18 -15 -33.5t-39.5 -27t-56.5 -18.5t-66 -7q-100 0 -147.5 61.5t-47.5 163.5v34h-46q-17 0 -28 10.5t-11 26.5t12 26.5t27 10.5h46v56h-46 q-17 0 -28 10.5t-11 26.5t12 26.5t27 10.5z"></glyph><glyph glyph-name="uni20B4" unicode="₴" d="M56 454h256q20 26 32.5 56t12.5 59q0 36 -24 52t-81 16q-33 0 -53.5 -4.5t-34 -9.5t-23.5 -9.5t-23 -4.5q-20 0 -30.5 11.5t-10.5 26.5q0 21 19.5 34.5t47 21t57.5 10t51 2.5q85 0 136.5 -36t51.5 -115q0 -34 -9.5 -60.5t-25.5 -49.5h39q15 0 27 -10.5t12 -26.5 t-11 -26.5t-28 -10.5h-110q-17 -14 -34.5 -28t-34.5 -28h179q15 0 27 -10.5t12 -26.5t-11 -26.5t-28 -10.5h-248q-17 -23 -29 -52.5t-12 -61.5q0 -15 4 -27.5t15.5 -21.5t31.5 -14t51 -5q36 0 60.5 5.5t42.5 12t30.5 12t23.5 5.5q16 0 26.5 -12t10.5 -27q0 -20 -19.5 -34 t-48 -23t-61 -13t-59.5 -4q-42 0 -77.5 9.5t-61.5 29t-41 49.5t-15 71q0 30 7.5 55t21.5 46h-41q-17 0 -28 10.5t-11 26.5t12 26.5t27 10.5h111q18 14 36.5 28t35.5 28h-183q-17 0 -28 10.5t-11 26.5t12 26.5t27 10.5z"></glyph><glyph glyph-name="uni20BD" unicode="₽" d="M49 338h39v319q0 20 14 34t34 14h117q62 0 105 -18.5t69.5 -49.5t38.5 -71.5t12 -84.5q0 -107 -61 -164t-164 -57h-85v-52h149q15 0 27 -10.5t12 -26.5t-11 -26.5t-28 -10.5h-149v-102q0 -17 -12 -29.5t-28 -12.5t-28 12.5t-12 29.5v102h-39q-17 0 -28 10.5t-11 26.5 t12 26.5t27 10.5h39v56h-39q-17 0 -28 10.5t-11 26.5t12 26.5t27 10.5zM168 627v-289h85q72 0 108.5 35t36.5 109q0 27 -6 53t-22 46.5t-44.5 33t-72.5 12.5h-85z"></glyph><glyph glyph-name="trademark" unicode="™" d="M727 682v-375q0 -11 -9 -19.5t-20 -8.5q-12 0 -20.5 8.5t-8.5 19.5v268l-92 -189q-9 -18 -29 -18q-21 0 -29 18l-92 189v-268q0 -11 -9 -19.5t-20 -8.5q-12 0 -20 8.5t-8 19.5v375q0 14 8.5 22.5t22.5 8.5q20 0 30 -18l117 -241l118 241q5 10 13 14t17 4q12 0 21.5 -9.5 t9.5 -21.5zM318 679q0 -13 -8.5 -21t-20.5 -8h-95v-342q0 -12 -8.5 -20.5t-21.5 -8.5t-21.5 8.5t-8.5 20.5v342h-94q-13 0 -21.5 8t-8.5 21q0 12 8.5 20.5t21.5 8.5h249q12 0 20.5 -8.5t8.5 -20.5z"></glyph><glyph glyph-name="estimated" unicode="℮" d="M825 317h-605q-5 0 -5 -4v-183q0 -10 9 -21q43 -46 102 -72.5t127 -26.5q72 0 134 30t106 81h55q-51 -60 -128 -95.5t-168 -35.5q-77 0 -145 26.5t-119 72t-80.5 106.5t-29.5 131t29.5 131t80.5 106.5t119 72t145 26.5t145 -26.5t118.5 -72t80 -106.5t29.5 -131v-9z M689 341v184q0 12 -10 22q-44 44 -102 69.5t-124 25.5q-68 0 -126 -26.5t-102 -71.5q-10 -10 -10 -23v-180q0 -5 5 -5h464q5 0 5 5z"></glyph><glyph glyph-name="arrowleft" unicode="←" d="M504 353q0 -15 -11 -25.5t-25 -10.5h-299l148 -171q5 -7 5 -17q0 -17 -11 -29t-29 -12q-14 0 -20.5 7t-17.5 20l-179 214q-19 23 0 46l173 206q9 11 16 18.5t21 7.5t26 -10.5t12 -26.5q0 -11 -5 -19l-140 -161h300q15 0 25.5 -11t10.5 -26z"></glyph><glyph glyph-name="arrowup" unicode="↑" d="M309 81q-15 0 -26 10.5t-11 25.5v379l-161 -139q-4 -4 -9 -4.5t-10 -0.5q-16 0 -26.5 12t-10.5 26t7.5 21t18.5 16l206 173q23 19 46 0l214 -179q13 -11 20 -17.5t7 -20.5q0 -18 -12 -29t-29 -11q-4 0 -8.5 0.5t-8.5 4.5l-171 148v-379q0 -14 -10.5 -25t-25.5 -11z"></glyph><glyph glyph-name="arrowright" unicode="→" d="M55 353q0 15 10.5 26t25.5 11h299l-139 161q-5 8 -5 19q0 16 12 26.5t26 10.5t21 -7.5t16 -18.5l173 -206q19 -23 0 -46l-179 -214q-11 -13 -17.5 -20t-20.5 -7q-18 0 -29 12t-11 29q0 10 5 17l148 171h-299q-14 0 -25 10.5t-11 25.5z"></glyph><glyph glyph-name="arrowdown" unicode="↓" d="M309 613q15 0 25.5 -11t10.5 -25v-379l171 148q4 4 8.5 4.5t8.5 0.5q17 0 29 -11t12 -29q0 -14 -7 -20.5t-20 -17.5l-214 -179q-23 -19 -46 0l-206 173q-11 9 -18.5 16t-7.5 21t10.5 26t26.5 12q5 0 10 -0.5t9 -4.5l161 -140v380q0 15 11 25.5t26 10.5z"></glyph><glyph glyph-name="uni2196" unicode="↖" d="M463 155q-11 -11 -26 -11.5t-26 10.5l-269 269l-14 -213q0 -5 -3.5 -9.5t-6.5 -7.5q-11 -11 -27.5 -10t-25.5 11q-10 10 -10 20t2 24l23 268q3 30 33 33l278 25q16 2 26 2t20 -10q13 -13 11.5 -29.5t-12.5 -27.5q-3 -3 -7 -6t-9 -3l-226 -17l269 -267q10 -11 10.5 -25.5 t-10.5 -25.5z"></glyph><glyph glyph-name="uni2197" unicode="↗" d="M67 163q-11 11 -11.5 25.5t10.5 25.5l268 268l-212 16q-5 0 -9.5 3.5t-7.5 6.5q-11 11 -10 27t10 26q10 10 20.5 9.5t24.5 -1.5l268 -24q29 -3 32 -32l25 -278q2 -17 2 -26.5t-10 -19.5q-13 -13 -29 -12t-28 13q-2 2 -5 6t-3 9l-17 226l-268 -268q-10 -11 -24.5 -11 t-25.5 11z"></glyph><glyph glyph-name="uni2198" unicode="↘" d="M66 539q11 11 26 11.5t26 -10.5l268 -270l15 214q0 5 3.5 9.5t6.5 7.5q11 11 27.5 10t25.5 -11q10 -10 10 -20t-2 -24l-23 -268q-3 -30 -33 -33l-278 -25q-16 -2 -26 -2t-20 10q-13 13 -11.5 29.5t12.5 27.5q3 3 7 6t9 3l225 16l-268 268q-10 11 -10.5 25.5t10.5 25.5z "></glyph><glyph glyph-name="uni2199" unicode="↙" d="M465 531q11 -11 11.5 -25.5t-10.5 -25.5l-268 -269l212 -15q5 0 9.5 -3.5t7.5 -6.5q11 -11 10 -27t-10 -26q-10 -10 -20.5 -9.5t-24.5 1.5l-268 24q-29 3 -32 32l-25 278q-2 17 -2 26.5t10 19.5q13 13 29 12t28 -13q2 -2 5 -6t3 -9l16 -226l269 268q10 11 24.5 11 t25.5 -11z"></glyph><glyph glyph-name="minus" unicode="−" d="M81 393h338q15 0 27 -11t12 -28t-11 -28t-28 -11h-338q-17 0 -28 11t-11 28t12 28t27 11z"></glyph><glyph glyph-name="triagup" unicode="▲" d="M112 0q-42 0 -52.5 17t8.5 55l275 549q19 38 36 38t36 -38l275 -549q19 -38 8.5 -55t-52.5 -17h-534z"></glyph><glyph glyph-name="triagrt" unicode="►" d="M55 612q0 42 17 52.5t55 -8.5l564 -282q38 -19 38 -36t-38 -36l-564 -281q-38 -19 -55 -8.5t-17 52.5v547z"></glyph><glyph glyph-name="triagdn" unicode="▼" d="M646 678q42 0 52.5 -17t-8.5 -55l-275 -549q-19 -38 -36 -38t-36 38l-275 549q-19 38 -8.5 55t52.5 17h534z"></glyph><glyph glyph-name="triaglf" unicode="◄" d="M658 656q38 19 55 8.5t17 -52.5v-547q0 -42 -17 -52.5t-55 8.5l-564 281q-38 19 -38 36t38 36z"></glyph></font>
</defs>
</svg>
